(Classical, Ballet) [LP][24/96] Prokofiev – Excerpts from the Ballet, Romeo And Juliet (Los Angeles Philharmonic - Erich Leinsdorf, conductor) - 1978, FLAC (tracks)


Статистика раздачи [Обновить пиров]
Размер:  723 MB   |    Зарегистрирован:  8 месяцев 18 дней   |    Скачан:  0 раз

Полного источника не было: Никогда

 
   
 
 
 

[Цитировать]


Prokofiev -
Excerpts from the Ballet, Romeo And Juliet

Жанр: Classical, Ballet
Носитель: LP
Год выпуска: 1978
Лейбл: Sheffield Lab – Album LAB-8 (SL25/26) (Limited edition pressing)
Страна-производитель: USA/Germany
Аудио кодек: FLAC
Тип рипа: tracks
Формат записи: 32/96
Формат раздачи: 24/96
Продолжительность: 33:23
Треклист:
Side One:
Act I: Introduction, Juliet The Young Girl, Masques; Dance Of The Knights, Gavotte, Romeo Resloves To Avenge Mercutio's Death / Act II: Finale
Side Two:
Act III: Introduction, Interlude, Again At Juliet's Home, Dance Of The Maidens Wit Lilies, Juliet's Funera / Death Of Juliet
Personnel:
- composed – Sergei Prokofiev (1891-1953)
- conductor – Erich Leinsdorf (1912-1993)
- orchestra – Los Angeles Philharmonic Orchestra
Recorded July 18th & 20th, 1977 at M.G.M. Studios, Culver City, California
Recorded direct to the Master Disc (Direct Cut)
Engineers – Doug Sax & Bud Wyatt
Manufactured in Germany stamped in deadwax

Источник оцифровки: третьим лицом
Код класса состояния винила: VG

Ripping Info:

Recording Log:
Disc: Owned from new, multiple plays, very good
Cleaned DiscWasher Record Cleaning System
Rega Planar 3 TT, Grace 727 arm, Grace F9E cartridge
Heed Questar phono preamp
Alpha Design Labs GT40 A-D conversion output at 24bit-96kHz
Recording as 32 bit 96kHz wave file with Adobe Audition 3.0
Selective click repair (setting 1.0) and very limited noise reduction (mainly between tracks) with iZotope RX
Gain 0 dB, peak 0.00 dB(L) 0.00 dB(R)
Conversion to 24-96 flac and manual track separation Audacity 1.3 Beta
-

Dynamic Range Analysis:

=======================================================================
foobar2000 1.1.11 / Dynamic Range Meter 1.1.1
--------------------------------------------------------------------------------
Analyzed: Los Angeles Philharmonic / Romeo and Juliet (excerpts)
--------------------------------------------------------------------------------
DR Peak RMS Duration Track
--------------------------------------------------------------------------------
DR12 -11.03 dB -29.23 dB 2:48 01-Act 1: Introduction
DR13 -13.25 dB -31.96 dB 2:50 02-Juliet The Young Girl
DR14 -8.90 dB -28.85 dB 2:34 03-Masques
DR16 0.00 dB -20.31 dB 2:07 04-Dance of the Knights
DR15 -6.26 dB -27.50 dB 3:52 05-Gavotte
DR14 -5.89 dB -23.93 dB 2:00 06-Romeo resolves to avenge Mercutio's death
DR15 0.00 dB -19.29 dB 2:12 07-Act II: Finale
DR12 -0.07 dB -19.33 dB 1:11 08-Act III: Introduction
DR12 -5.44 dB -22.98 dB 4:37 09-Interlude
DR8 -20.79 dB -36.26 dB 0:46 10-Again at Juliet's Home
DR11 -21.29 dB -36.56 dB 2:07 10-Dance Of The Maidens Wit Lilies
DR14 0.00 dB -21.87 dB 5:16 12-Jukiet's Funeral
DR11 -8.42 dB -25.71 dB 3:52 13-Death of Juliet
--------------------------------------------------------------------------------
Number of tracks: 13
Official DR value: DR13
Samplerate: 96000 Hz
Channels: 2
Bits per sample: 24
Bitrate: 2598 kbps
Codec: FLAC
=======================================================================

Спектр

АЧХ

Уровень записи

[teatrix.ru].t18172.torrent 
Торрент: Зарегистрирован [ 2016-03-17 00:42 ] · CAB5D806B4499EBCB850C5E9472292E74021DE57

Скачать .torrent

Скачать

16 KB

Статус: проверено
Скачан: 0 раз
Размер: 723 MB
terms.php



Быстрый ответ

Имя:

      
Для отправки сообщений необходимо включить JavaScript
Показать сообщения:    

Текущее время: 04-Дек 04:58

Часовой пояс: UTC + 3


Вы можете начинать темы
Вы можете отвечать на сообщения
Вы не можете редактировать свои сообщения
Вы не можете удалять свои сообщения
Вы не можете голосовать в опросах
Вы не можете прикреплять файлы к сообщениям
Вы можете скачивать файлы