(Classical, Opera) [LP][24/96] Wagner – Die Wallküre, Tristan Und Isolde, Die Götterdämmerung, Siegfried (Los Angeles Philharmonic - Erich Leinsdorf, conductor) - 1978, FLAC (tracks)


Статистика раздачи [Обновить пиров]
Размер:  649 MB   |    Зарегистрирован:  8 месяцев 19 дней   |    Скачан:  0 раз

Полного источника не было: Никогда

 
   
 
 
 

[Цитировать]


Wagner – Die Wallküre, Tristan Und Isolde, Die Götterdämmerung, Siegfried
Жанр: Classical, Opera
Носитель: LP
Год выпуска: 1978
Лейбл: Sheffield Lab – Album LAB-7 (SL27/28) (Limited edition pressing)
Страна-производитель: USA/Germany
Аудио кодек: FLAC
Тип рипа: tracks
Формат записи: 32/96
Формат раздачи: 24/96
Продолжительность: 31:40
Треклист:
Side One:
A1 Die Walküre: Ride Of The Valkyries
A2 Tristan Und Isolde: Prelude To Act I
Side Two:
B1 Die Götterdämmerung: Siegfried´s Funeral Music
B2 Siegfried: Forest Murmurs
Personnel:
- composed – Richard Wagner (1813-1883)
- conductor – Erich Leinsdorf (1912-1993)
- orchestra – Los Angeles Philharmonic Orchestra
Recorded July 18th & 20th, 1977 at M.G.M. Studios, Culver City, California
Recorded direct to the Master Disc (Direct Cut)
Engineers – Doug Sax & Bud Wyatt
Manufactured in Germany stamped in deadwax

Источник оцифровки: третьим лицом
Код класса состояния винила: Ex

Ripping Info:

Recording Log:
Disc: borrowed, multiple plays, excellent
Cleaned DiscWasher Record Cleaning System
Rega Planar 3 TT, Grace 727 arm, Grace F9E cartridge
Heed Questar phono preamp
Alpha Design Labs GT40 A-D conversion output at 24bit-96kHz
Recording as 32 bit 96kHz wave file with Adobe Audition 3.0
Selective click repair (setting 1.0) and noise reduction (mainly between tracks) with iZotope RX 2
Gain adjust to peak -0.05 dB (L) and (R)
Conversion to 24-96 flac and manual track separation Adobe Audition Audacity CS6 v 5.0 build 708.
-

Dynamic Range Analysis:

=======================================================================
foobar2000 1.1.11 / Dynamic Range Meter 1.1.1
——————————————————————————–
DR Peak RMS Duration Track
——————————————————————————–
DR14 -0.86 dB -19.43 dB 5:04 01 Die Walküre: Ride Of The Valkyries
DR15 -0.61 dB -25.82 dB 10:53 02 Tristan Und Isolde: Prelude To Act I
DR16 -0.05 dB -22.02 dB 7:51 03 Die Götterdämmerung: Siegfried´s Funeral Music
DR15 -1.78 dB -26.42 dB 7:52 04 Siegfried: Forest Murmurs
——————————————————————————–
Number of tracks: 4
Official DR value: DR15
Sample rate: 96000 Hz
Channels: 2
Bits per sample: 24
Bitrate: 2617 kbps
Codec: FLAC
=======================================================================

Спектр

АЧХ

Уровень записи

[teatrix.ru].t18173.torrent 
Торрент: Зарегистрирован [ 2016-03-17 00:42 ] · E3509E4463896C18354C62D806C36D592C897D5C

Скачать .torrent

Скачать

14 KB

Статус: проверено
Скачан: 0 раз
Размер: 649 MB
terms.php



Быстрый ответ

Имя:

      
Для отправки сообщений необходимо включить JavaScript
Показать сообщения:    

Текущее время: 05-Дек 05:28

Часовой пояс: UTC + 3


Вы можете начинать темы
Вы можете отвечать на сообщения
Вы не можете редактировать свои сообщения
Вы не можете удалять свои сообщения
Вы не можете голосовать в опросах
Вы не можете прикреплять файлы к сообщениям
Вы можете скачивать файлы