Настя Задорожная в программе 'Горячее кино' на MTV (Эфир 17 марта 2012) [2012, Развлекательное шоу, DVB]


Статистика раздачи [Обновить пиров]
Размер:  312 MB   |    Зарегистрирован:  8 месяцев 21 день   |    Скачан:  0 раз

Полного источника не было: Никогда

 
   
 
 
 

[Цитировать]

Настя Задорожная в программе 'Горячее кино' на MTV (Эфир 17 марта 2012)
Год выпуска: 2012
Страна: Россия
Жанр: Развлекательное шоу
Продолжительность: 00:09:20
Перевод: Не требуется
Русские субтитры: нет
Режиссер: MTV
Описание: Настя Задорожная и Влади (гр. Каста) высказывают своё мнение о фильмах "Белоснежка: месть гномов", "Тот еще КарлОсон", "Ловушка для невесты".
Сэмпл: http://yadi.sk/d/lkiizdfxJ7oNS
качество: DVB
формат: MPG
Видео: MPEG-2 PS, 704x576, 4:3, ~4000 kbps, 25 fps
Аудио: MPEG Audio Layer 3, 256 kbps, 48 kHz, 2 ch

MediaInfo

General
Complete name : F:\Бабени\Настя Задорожная\Video\[2012] Настя Задорожная в программе 'Горячее кино' на MTV (Эфир - 17 марта 2012)\(2012) MTV - March 17 11 34 17.mpg
Format : MPEG-PS
File size : 312 MiB
Duration : 9mn 20s
Overall bit rate mode : Variable
Overall bit rate : 4 677 Kbps
Writing library : (c) 1998-2011 Womble Multimedia, Inc. / MPEG Video Wizard DVD 5.0.1.100 (03/2011) / Dec 19 2011
Video
ID : 224 (0xE0)
Format : MPEG Video
Format version : Version 2
Format profile : Main@Main
Format settings, BVOP : Yes
Format settings, Matrix : Custom
Format settings, GOP : M=3, N=18
Duration : 9mn 20s
Bit rate mode : Variable
Bit rate : 4 336 Kbps
Width : 704 pixels
Height : 576 pixels
Display aspect ratio : 4:3
Frame rate : 25.000 fps
Standard : PAL
Color space : YUV
Chroma subsampling : 4:2:0
Bit depth : 8 bits
Scan type : Interlaced
Scan order : Top Field First
Compression mode : Lossy
Bits/(Pixel*Frame) : 0.428
Stream size : 289 MiB (93%)
Writing library : (c) 1998-2011 Womble Multimedia, Inc. / MPEG Video Wizard DVD 5.0.1.100 (03/2011) / Dec 19 2011
Audio
ID : 192 (0xC0)
Format : MPEG Audio
Format version : Version 1
Format profile : Layer 2
Duration : 9mn 20s
Bit rate mode : Constant
Bit rate : 256 Kbps
Channel(s) : 2 channels
Sampling rate : 48.0 KHz
Compression mode : Lossy
Stream size : 17.1 MiB (5%)
Прочее с настейСериал "Клуб" 1-ый сезон (2006, DVB)
[2007-05-15] 'Ночной флирт' MTV - Настя Задорожная (2007, DVB)
Теория невероятности - Трудоголики (Первый канал, 2008, DVB)
Реальная любовь (Муз-тв, 2011, DVB)
Преступление будет раскрыто, сезон 2 (2010, DVB)
Формат А4 / Сезон: 1, Серии: 1,3,5-8,10-16 из 16 (2011, DVB)
Формат А4 / Сезон: 1, Серии: 1,2,4,9 из 16 (2011, DVB)
Горячее кино (MTV, 2012, DVB)
Любовные игры (MTV, 2012, DVB)
Остров (НТВ, 2013, DVB)
[teatrix.ru].t18176.torrent 
Торрент: Зарегистрирован [ 2016-03-17 00:42 ] · E1335073E713BF4099A66E2B11DD68D67B0AD813

Скачать .torrent

Скачать

13 KB

Статус: проверено
Скачан: 0 раз
Размер: 312 MB
terms.php



Показать сообщения:    

Текущее время: 07-Дек 19:28

Часовой пояс: UTC + 3


Вы не можете начинать темы
Вы не можете отвечать на сообщения
Вы не можете редактировать свои сообщения
Вы не можете удалять свои сообщения
Вы не можете голосовать в опросах
Вы не можете прикреплять файлы к сообщениям
Вы можете скачивать файлы