Сергей Безруков. Исповедь хулигана (Максим Володин) [2013, познавательный, биография, DVB (MPEG2) - Yamal 202 at 49.0°E]


Статистика раздачи [Обновить пиров]
Размер:  1.01 GB   |    Зарегистрирован:  10 месяцев 6 дней   |    Скачан:  0 раз

Полного источника не было: Никогда

 
   
 
 
 

[Цитировать]

Сергей Безруков. Исповедь хулигана
Год выпуска: 2013
Страна: Россия
Жанр: познавательный, биография
Продолжительность: 00:38:17
Перевод: Не требуется
Режиссер: Максим Володин
Участники: Ирина Безрукова, Диана Гурцкая, Александр Адабашьян, Екатерина Гусева, Владимир Бортко, Михаил Задорнов, Елизавета Боярская, Антон Богданов и многие другие.
Описание: Сергей Безруков занимает первое место среди молодых российских актеров по количеству сыгранных ролей в кино и телесериалах – их около 40! Вряд ли в России еще найдется артист его возраста, кому удается так часто появляться на экране и иметь столько регалий. При этом он пишет картины, руководит театром, занимается общественной работой… Как простому московскому парню удалось достичь таких успехов? Сергей часто бывал на работе у отца, артиста Театра Сатиры, и рано принял решение пойти по его стопам. После окончания средней школы он без проблем поступил в Школу-студию МХАТ и вскоре стал любимым студентом Олега Табакова. Но счастлив ли актер? Как на самом деле складывается семейная жизнь четы Безруковых? Об этом в фильме рассказывают сами Сергей и Ирина - без всяких домыслов, сплетен и легенд. Откуда Сергей Безруков черпает силы и вдохновение? О чем мечтает знаменитый актёр? И почему согласился возглавить театр?
Раздача группы:
Сэмпл
качество: DVB
формат: MPG
Видео: MPEG2, 720х576, 4:3, 3550 Kbps, 25 fps
Аудио: MP2, 192 Kbps, 48.0 KHz, 2 ch.

MediaInfo

G:\Документалистика\Сергей Безруков. Исповедь хулигана.mpg
General
Complete name : G:\Документалистика\Сергей Безруков. Исповедь хулигана.mpg
Format : MPEG-PS
File size : 1.01 GiB
Duration : 38mn 7s
Overall bit rate mode : Variable
Overall bit rate : 3 791 Kbps
Video #224
ID : 224 (0xE0)
Format : MPEG Video
Format version : Version 2
Format profile : Main@Main
Format settings, BVOP : Yes
Format settings, Matrix : Custom
Format settings, GOP : M=1, N=19
Duration : 38mn 7s
Bit rate mode : Variable
Bit rate : 3 550 Kbps
Width : 720 pixels
Height : 576 pixels
Display aspect ratio : 4:3
Frame rate : 25.000 fps
Standard : PAL
Color space : YUV
Chroma subsampling : 4:2:0
Bit depth : 8 bits
Scan type : Interlaced
Scan order : Top Field First
Compression mode : Lossy
Bits/(Pixel*Frame) : 0.342
Stream size : 961 MiB (93%)
Audio #192
ID : 192 (0xC0)
Format : MPEG Audio
Format version : Version 1
Format profile : Layer 2
Duration : 38mn 7s
Bit rate mode : Constant
Bit rate : 192 Kbps
Channel(s) : 2 channels
Sampling rate : 48.0 KHz
Compression mode : Lossy
Delay relative to video : 11ms
Stream size : 52.4 MiB (5%)

Скриншоты

[teatrix.ru].t18179.torrent 
Торрент: Зарегистрирован [ 2016-03-17 00:42 ] · E37CC33BE93BE98866A4D086C8E24811C31F73EC

Скачать .torrent

Скачать

11 KB

Статус: проверено
Скачан: 0 раз
Размер: 1.01 GB
terms.php



Показать сообщения:    

Текущее время: 24-Янв 00:01

Часовой пояс: UTC + 3


Вы не можете начинать темы
Вы не можете отвечать на сообщения
Вы не можете редактировать свои сообщения
Вы не можете удалять свои сообщения
Вы не можете голосовать в опросах
Вы не можете прикреплять файлы к сообщениям
Вы можете скачивать файлы