Вокруг "Двух стрел" [1989, Мосфильм, Союзинформкино, рекламный фильм, VHSRip]


Статистика раздачи [Обновить пиров]
Размер:  98 MB   |    Зарегистрирован:  8 месяцев 17 дней   |    Скачан:  0 раз

Полного источника не было: Никогда

 
   
 
 
 

[Цитировать]

Вокруг "Двух стрел"
Год выпуска: 1989
Страна: СССР
Жанр: рекламный фильм
Продолжительность: 00:10:14
Перевод: Не требуется
Русские субтитры: нет
Описание: В игровой юмористической форме авторы фильма знакомят зрителей с фильмом "Две стрелы", который вышел на экраны СССР в 1989 году
Доп. информация: Фильм оцифрован с киноплёнки 35-мм из личной коллекции
качество: VHSRip
формат: AVI
Видео: XviD; 4:3; 720х576; 1328 kbps; 25 fps
Аудио: МР-3; 128 kbps; 48 kHz; 2 ch (моно)

MediaInfo

Общее
Полное имя :Вокруг Двух стрел.avi
Формат : AVI
Формат/Информация : Audio Video Interleave
Размер файла : 97,9 Мбайт
Продолжительность : 10 м.
Общий поток : 1336 Кбит/сек
Программа кодирования : Lavf54.63.104
Видео
Идентификатор : 0
Формат : xvid
Идентификатор кодека : xvid
Продолжительность : 10 м.
Битрейт : 1195 Кбит/сек
Ширина : 720 пикселей
Высота : 576 пикселей
Соотношение сторон : 5:4
Частота кадров : 25,000 кадров/сек
Стандарт вещания : PAL
Бит/(Пиксели*Кадры) : 0.115
Размер потока : 87,6 Мбайт (89%)
Аудио
Идентификатор : 1
Формат : MPEG Audio
Версия формата : Version 1
Профиль формата : Layer 3
Режим : Joint stereo
Расширение режима : MS Stereo
Идентификатор кодека : 55
Идентификатор кодека/Подсказка : MP3
Продолжительность : 10 м.
Вид битрейта : Постоянный
Битрейт : 128 Кбит/сек
Каналы : 2 канала
Частота : 48,0 КГц
Метод сжатия : С потерями
Размер потока : 9,38 Мбайт (10%)
Выравнивание : Соединение по промежуткам
Продолжительность промежутка : 24 мс. (0,60 видеокадр)

Скриншоты

, , , , , ,
[teatrix.ru].t18185.torrent 
Торрент: Зарегистрирован [ 2016-03-17 00:41 ] · 40F9961F775B11538B8AB3E022C0CF7085541C5D

Скачать .torrent

Скачать

16 KB

Статус: проверено
Скачан: 0 раз
Размер: 98 MB
terms.php



Показать сообщения:    

Текущее время: 03-Дек 07:41

Часовой пояс: UTC + 3


Вы не можете начинать темы
Вы не можете отвечать на сообщения
Вы не можете редактировать свои сообщения
Вы не можете удалять свои сообщения
Вы не можете голосовать в опросах
Вы не можете прикреплять файлы к сообщениям
Вы можете скачивать файлы