Олег Янковский. Полеты наяву (Ирина Кокорина) [2014, Документальный, биография, искусство, SATRip]


Статистика раздачи [Обновить пиров]
Размер:  516 MB   |    Зарегистрирован:  8 месяцев 25 дней   |    Скачан:  0 раз

Полного источника не было: Никогда

 
   
 
 
 

[Цитировать]

Олег Янковский. Полеты наяву
Год выпуска: 2014
Страна: Россия, ГТРК "Культура"
Жанр: Документальный, биография, искусство
Продолжительность: 00:44:02
Перевод: Не требуется
Русские субтитры: нет
Режиссер: Ирина Кокорина
Описание: Об удивительном таланте Олега Ивановича Янковского. Этот дар и отшлифованное мастерство несравнимо ни с чем и ни с кем. Янковский настолько выразительно молчал в кадре, что своей тишиной "заглушал" всех говорящих. Каждый раз, смотря фильм с участием О. Янковского, мы становимся свидетелями чуда...
качество: SATRip
формат: AVI
Видео: XviD, 1500 Kbps, 704х400, 25.000 fps, 0.21 bit/pixel
Аудио: MP3, 2 ch, 128 Kbps, 48.0 KHz

MediaInfo

Complete name                            : D:\Документалка\Oleg.JAnkovskij.Poljoty.najavu.2014.SATRip.avi
Format : AVI
Format/Info : Audio Video Interleave
File size : 516 MiB
Duration : 44mn 2s
Overall bit rate : 1 638 Kbps
Writing application : VirtualDubMod 1.5.10.3 | www.virtualdub-fr.org || (build 2550/release)
Writing library : VirtualDubMod build 2550/release
Video
ID : 0
Format : MPEG-4 Visual
Format profile : Advanced Simple@L5
Format settings, BVOP : 2
Format settings, QPel : No
Format settings, GMC : No warppoints
Format settings, Matrix : Default (MPEG)
Codec ID : XVID
Codec ID/Hint : XviD
Duration : 44mn 2s
Bit rate : 1 500 Kbps
Width : 704 pixels
Height : 400 pixels
Display aspect ratio : 16:9
Frame rate : 25.000 fps
Color space : YUV
Chroma subsampling : 4:2:0
Bit depth : 8 bits
Scan type : Progressive
Compression mode : Lossy
Bits/(Pixel*Frame) : 0.213
Stream size : 472 MiB (92%)
Writing library : XviD 1.2.1 (UTC 2008-12-04)
Audio
ID : 1
Format : MPEG Audio
Format version : Version 1
Format profile : Layer 3
Codec ID : 55
Codec ID/Hint : MP3
Duration : 44mn 2s
Bit rate mode : Constant
Bit rate : 128 Kbps
Channel(s) : 2 channels
Sampling rate : 48.0 KHz
Compression mode : Lossy
Stream size : 40.3 MiB (8%)
Alignment : Aligned on interleaves
Interleave, duration : 40 ms (1.00 video frame)
Interleave, preload duration : 504 ms
Writing library : LAME3.99r
Encoding settings : -m s -V 4 -q 2 -lowpass 17 -b 128

Скриншоты



[teatrix.ru].t18190.torrent 
Торрент: Зарегистрирован [ 2016-03-17 00:41 ] · 3741FB5DFD33E5B6C043FE9661E559BA4C3DD766

Скачать .torrent

Скачать

11 KB

Статус: проверено
Скачан: 0 раз
Размер: 516 MB
terms.php



Показать сообщения:    

Текущее время: 11-Дек 11:07

Часовой пояс: UTC + 3


Вы не можете начинать темы
Вы не можете отвечать на сообщения
Вы не можете редактировать свои сообщения
Вы не можете удалять свои сообщения
Вы не можете голосовать в опросах
Вы не можете прикреплять файлы к сообщениям
Вы можете скачивать файлы