(Baroque sacred) Marc-Antoine Charpentier - Te Deum (Maitrise de Bretagne, Le Parlement de Musique, Martin Gester) - 2010, FLAC (image+.cue) lossless


Статистика раздачи [Обновить пиров]
Размер:  270 MB   |    Зарегистрирован:  8 месяцев 25 дней   |    Скачан:  0 раз

Полного источника не было: Никогда

 
   
 
 
 

[Цитировать]

Marc-Antoine Charpentier - Te Deum

Жанр: Baroque sacred
Страна-производитель диска: Made in France
Год издания диска: 2010
Издатель (лейбл): Naive
Номер по каталогу: V5245
Дата записи: 2000
Аудиокодек: FLAC
Тип рипа: image+.cue
Битрейт аудио: lossless
Продолжительность: 61'43
Источник: релизер
сайт-источник/ник/другое: Odeon
Наличие сканов в содержимом раздачи: да
Треклист:
1-11 Te Deum
12-21 In honorem Sancti Ludovici Regis Galliae Canticum H 365
22-27 In honorem Sancti Ludovici Regis Galliae H 418
28-33 Psalmus Davis 75us Notus in Judea H 206
Исполнители:

скрытый текст

Marc-Antoine Charpentier (1643-1704)
Te Deum
In honorem Sancti Ludovici Regis Galliae Canticum H 365
In honorem Sancti Ludovici Regis Galliae H 418
Psalmus Davis 75us Notus in Judea H 206
Salomé Haller - soprano
Brigitte Chevigné - soprano
François-Nicolas Geslot - counter tenor
Stephan van Dyck - tenor
Arnaud Gester - baritone
Maîtrise de Bretagne
Le Parlement de Musique
Martin Gester - conductor

Лог создания рипа

Exact Audio Copy V1.0 beta 3 from 29. August 2011
EAC extraction logfile from 17. February 2014, 11:19
Martin Gester / Marc-Antoine Charpentier - Te Deum - Martin Gester
Used drive : TSSTcorpCDDVDW SH-222BB Adapter: 2 ID: 1
Read mode : Secure
Utilize accurate stream : Yes
Defeat audio cache : Yes
Make use of C2 pointers : No
Read offset correction : 6
Overread into Lead-In and Lead-Out : No
Fill up missing offset samples with silence : Yes
Delete leading and trailing silent blocks : No
Null samples used in CRC calculations : Yes
Used interface : Native Win32 interface for Win NT & 2000
Used output format : User Defined Encoder
Selected bitrate : 1024 kBit/s
Quality : High
Add ID3 tag : No
Command line compressor : C:\Program Files\Exact Audio Copy\Flac\flac.exe
Additional command line options : -8 -V -T "TITLE=%title%" -T "ARTIST=%artist%" -T "ALBUMARTIST=%albumartist%" -T "ALBUM=%albumtitle%" -T "DATE=%year%" -T "TRACKNUMBER=%tracknr%" -T "TRACKTOTAL=%numtracks%" -T "GENRE=%genre%" -T "COMMENT=%comment%" -T "PERFORMER=%albuminterpret%" -T "COMPOSER=%composer%" %source% -o %dest%
TOC of the extracted CD
Track | Start | Length | Start sector | End sector
---------------------------------------------------------
1 | 0:00.00 | 1:22.05 | 0 | 6154
2 | 1:22.05 | 1:20.00 | 6155 | 12154
3 | 2:42.05 | 1:46.17 | 12155 | 20121
4 | 4:28.22 | 2:16.38 | 20122 | 30359
5 | 6:44.60 | 3:08.47 | 30360 | 44506
6 | 9:53.32 | 1:43.15 | 44507 | 52246
7 | 11:36.47 | 2:08.68 | 52247 | 61914
8 | 13:45.40 | 2:20.15 | 61915 | 72429
9 | 16:05.55 | 1:53.45 | 72430 | 80949
10 | 17:59.25 | 1:34.17 | 80950 | 88016
11 | 19:33.42 | 2:43.25 | 88017 | 100266
12 | 22:16.67 | 1:07.55 | 100267 | 105346
13 | 23:24.47 | 0:51.20 | 105347 | 109191
14 | 24:15.67 | 1:03.28 | 109192 | 113944
15 | 25:19.20 | 1:33.30 | 113945 | 120949
16 | 26:52.50 | 1:05.72 | 120950 | 125896
17 | 27:58.47 | 1:10.73 | 125897 | 131219
18 | 29:09.45 | 2:19.72 | 131220 | 141716
19 | 31:29.42 | 2:00.48 | 141717 | 150764
20 | 33:30.15 | 0:43.10 | 150765 | 153999
21 | 34:13.25 | 2:35.50 | 154000 | 165674
22 | 36:49.00 | 1:46.02 | 165675 | 173626
23 | 38:35.02 | 1:10.70 | 173627 | 178946
24 | 39:45.72 | 3:05.33 | 178947 | 192854
25 | 42:51.30 | 2:09.30 | 192855 | 202559
26 | 45:00.60 | 2:02.35 | 202560 | 211744
27 | 47:03.20 | 1:14.07 | 211745 | 217301
28 | 48:17.27 | 0:37.53 | 217302 | 220129
29 | 48:55.05 | 0:44.40 | 220130 | 223469
30 | 49:39.45 | 1:41.00 | 223470 | 231044
31 | 51:20.45 | 4:39.32 | 231045 | 252001
32 | 56:00.02 | 2:07.48 | 252002 | 261574
33 | 58:07.50 | 3:34.12 | 261575 | 277636
Range status and errors
Selected range
Filename G:\Ripped general\[8148] Marc-Antoine Charpentier – Te Deum – Martin Gester\Marc-Antoine Charpentier - Te Deum - Martin Gester.wav
Peak level 100.0 %
Extraction speed 5.3 X
Range quality 99.9 %
Test CRC 5F8204E2
Copy CRC 5F8204E2
Copy OK
No errors occurred
AccurateRip summary
Track 1 cannot be verified as accurate (confidence 5) [09454A51], AccurateRip returned [055A3352] (AR v2)
Track 2 cannot be verified as accurate (confidence 5) [5BC2A661], AccurateRip returned [EDA5BFA5] (AR v2)
Track 3 cannot be verified as accurate (confidence 5) [6881A2CD], AccurateRip returned [2C7B1109] (AR v2)
Track 4 cannot be verified as accurate (confidence 5) [6082115E], AccurateRip returned [EC9FBFDB] (AR v2)
Track 5 cannot be verified as accurate (confidence 5) [4B24E5AA], AccurateRip returned [E62F3869] (AR v2)
Track 6 cannot be verified as accurate (confidence 5) [E29B05A7], AccurateRip returned [282401E0] (AR v2)
Track 7 cannot be verified as accurate (confidence 5) [C4CF58ED], AccurateRip returned [A82EDA39] (AR v2)
Track 8 cannot be verified as accurate (confidence 5) [4F19D3F4], AccurateRip returned [2E8588BE] (AR v2)
Track 9 cannot be verified as accurate (confidence 5) [8C50074F], AccurateRip returned [38DD17F6] (AR v2)
Track 10 cannot be verified as accurate (confidence 5) [11E5EFFD], AccurateRip returned [CF56CF6C] (AR v2)
Track 11 cannot be verified as accurate (confidence 5) [A9E01406], AccurateRip returned [96D7581F] (AR v2)
Track 12 cannot be verified as accurate (confidence 5) [8ED671F5], AccurateRip returned [0996F4FE] (AR v2)
Track 13 cannot be verified as accurate (confidence 5) [CB2D70CB], AccurateRip returned [0629890E] (AR v2)
Track 14 cannot be verified as accurate (confidence 5) [056B3E4F], AccurateRip returned [7B25E78C] (AR v2)
Track 15 cannot be verified as accurate (confidence 5) [9AFA2D44], AccurateRip returned [04D2FD14] (AR v2)
Track 16 cannot be verified as accurate (confidence 5) [F17A37A9], AccurateRip returned [2154E4FA] (AR v2)
Track 17 cannot be verified as accurate (confidence 5) [5FF665FD], AccurateRip returned [3615843C] (AR v2)
Track 18 cannot be verified as accurate (confidence 4) [0C7CCC4B], AccurateRip returned [2EA38FB6] (AR v2)
Track 19 cannot be verified as accurate (confidence 5) [44DE079B], AccurateRip returned [1A91BE4A] (AR v2)
Track 20 cannot be verified as accurate (confidence 5) [113E4E64], AccurateRip returned [B015722D] (AR v2)
Track 21 cannot be verified as accurate (confidence 5) [CDAECE9E], AccurateRip returned [3D268512] (AR v2)
Track 22 cannot be verified as accurate (confidence 5) [C5BC99AB], AccurateRip returned [90A933DB] (AR v2)
Track 23 cannot be verified as accurate (confidence 5) [F626A120], AccurateRip returned [EAEDAD9C] (AR v2)
Track 24 cannot be verified as accurate (confidence 5) [D8A9E333], AccurateRip returned [59BD6CF7] (AR v2)
Track 25 cannot be verified as accurate (confidence 5) [1FA6F067], AccurateRip returned [B04562A2] (AR v2)
Track 26 cannot be verified as accurate (confidence 5) [CB004AB2], AccurateRip returned [17C7EE53] (AR v2)
Track 27 cannot be verified as accurate (confidence 5) [99530BC7], AccurateRip returned [519CA2BB] (AR v2)
Track 28 cannot be verified as accurate (confidence 5) [875BA4D9], AccurateRip returned [5788BBEB] (AR v2)
Track 29 cannot be verified as accurate (confidence 5) [F8ACB90D], AccurateRip returned [356CBD6A] (AR v2)
Track 30 cannot be verified as accurate (confidence 5) [820E3D80], AccurateRip returned [24233289] (AR v2)
Track 31 cannot be verified as accurate (confidence 5) [C1717A8D], AccurateRip returned [C84E53A1] (AR v2)
Track 32 cannot be verified as accurate (confidence 5) [164011C8], AccurateRip returned [D8EC015C] (AR v2)
Track 33 cannot be verified as accurate (confidence 5) [66A909F7], AccurateRip returned [AB40BC1D] (AR v2)
No tracks could be verified as accurate
You may have a different pressing from the one(s) in the database
End of status report
[teatrix.ru].t18193.torrent 
Торрент: Зарегистрирован [ 2016-03-17 00:41 ] · 3A2E568DA567A1AA1483B257607FDCEAC169B703

Скачать .torrent

Скачать

11 KB

Статус: проверено
Скачан: 0 раз
Размер: 270 MB
terms.php



Быстрый ответ

Имя:

      
Для отправки сообщений необходимо включить JavaScript
Показать сообщения:    

Текущее время: 11-Дек 14:59

Часовой пояс: UTC + 3


Вы можете начинать темы
Вы можете отвечать на сообщения
Вы не можете редактировать свои сообщения
Вы не можете удалять свои сообщения
Вы не можете голосовать в опросах
Вы не можете прикреплять файлы к сообщениям
Вы можете скачивать файлы