Жан-Батист Думанг - красный миллиардер / Jean-Baptiste Doumeng, le milliardaire rouge (Анни-Клод Элькаим / Annie-Claude Elkaim) [2013, документальный, биографический, DVB] Original (Fre) + Sub (Rus, Eng, Fre, Deu)


Статистика раздачи [Обновить пиров]
Размер:  1.16 GB   |    Зарегистрирован:  8 месяцев 18 дней   |    Скачан:  0 раз

Полного источника не было: Никогда

 
   
 
 
 

[Цитировать]

Красный миллиардер
Le milliardaire rouge- Год выпуска: 2013
Страна: Франция
Жанр: документальный, биографический
Продолжительность: 00:52:14
Перевод: Субтитры (перевод Д. Мироновой, Éclair Group)
Русские субтитры: естьФормат субтитров: prerendered (IDX+SUB)
Доп. информация о субтитрах: русские, английские, французские, немецкие, нидерландские, румынские
Оригинальная аудиодорожка: французский
Режиссер: Анни-Клод Элькаим / Annie-Claude Elkaïm
Телеканал: TV5MONDE Europe
Описание: По материалам одноименной книги журналиста Жака Ламаля / Jacques Lamalle (1980).
В 60-70-е годы во Франции все знали Думанга. В то время Жан-Батист Думанг (1919-1987) был обязательным посредником при торговле любой сельскохозяйственной продукцией со странами Варшавского договора. Он был министром связей с Европой. Он считал, что Франция должна обязательно торговать с Советским Союзом. Это был крестьянин, хитрый и изворотливый, которому удалось найти "золотую жилу" и разбогатеть. Благодаря разрядке между Востоком и Западом, кульминационной точкой которой явилось подписание в 1975 году хельсинкских соглашений, Думанг, проталкивая "советское лобби" во Франции, стал привилегированным посредником в диалоге между СССР и Западом. Для Москвы его политическая роль при правительстве была столь же важной, как и деловые операции, которые он мог обделывать для себя, для ФКП или для Советского Союза.
Доп. информация: Hot Bird (13.0°E) DVB-S

качество: DVB
формат: MKV
Видео: MPEG Video 2, 720x576@1024x576 (16:9), 25 fps, ~2928 kbps avg, 0.282 bit/pixel
Аудио: MPEG Audio 2, 2 ch, 48 kHz, 192.00 kbps - французский

MediaInfo

Общее
Уникальный идентификатор : 213564040621335640476664475939462149756 (0xA0AAF02683E819A499D12BB6F25F767C)
Полное имя : F:\My Torrents 3\[apreder]Jean-Baptiste_Doumeng_le_milliardaire_rouge(2013)DVB.mkv
Формат : Matroska
Версия формата : Version 2
Размер файла : 1,16 Гбайт
Продолжительность : 52 м.
Режим общего битрейта : Переменный
Общий поток : 3183 Кбит/сек
Дата кодирования : UTC 2015-11-03 15:31:33
Программа кодирования : mkvmerge v8.5.1 ('Where you lead I will follow') 64bit
Библиотека кодирования : libebml v1.3.3 + libmatroska v1.4.4
Attachements : cover.jpg / cover_small.jpg
TITLE : Jean-Baptiste Doumeng, le milliardaire rouge
IMDB : tt4993728
DATE_RELEASED : 2013-09-09
LAW_RATING : 12+
GENRE : Documentary
DIRECTOR : Annie-Claude Elkaïm
KEYWORDS : rutracker.org
Видео
Идентификатор : 1
Формат : MPEG Video
Версия формата : Version 2
Профиль формата : Main@Main
Параметр BVOP формата : Да
Параметр матрицы формата : Выборочная
Параметр GOP формата : M=4, N=12
Format_Settings_PictureStructure : Frame
Идентификатор кодека : V_MPEG2
Идентификатор кодека/Информация : MPEG 1 or 2 Video
Продолжительность : 52 м.
Вид битрейта : Переменный
Битрейт : 2928 Кбит/сек
Ширина : 720 пикселей
Высота : 576 пикселей
Соотношение сторон : 16:9
Режим частоты кадров : Постоянный
Частота кадров : 25,000 кадров/сек
Стандарт вещания : PAL
Цветовое пространство : YUV
Субдискретизация насыщенности : 4:2:0
Битовая глубина : 8 бит
Тип развёртки : Чересстрочная
Порядок развёртки : Верхнее поле первое
Метод сжатия : С потерями
Бит/(Пиксели*Кадры) : 0.282
Временной код первого кадра : 00:00:00:00
Оригинал временного кода : Group of pictures header
Размер потока : 1,07 Гбайт (92%)
Default : Да
Forced : Нет
Аудио
Идентификатор : 2
Формат : MPEG Audio
Версия формата : Version 1
Профиль формата : Layer 2
Режим : Joint stereo
Расширение режима : Intensity Stereo + MS Stereo
Идентификатор кодека : A_MPEG/L2
Идентификатор кодека/Подсказка : MP2
Продолжительность : 52 м.
Вид битрейта : Постоянный
Битрейт : 192 Кбит/сек
Каналы : 2 канала
Частота : 48,0 КГц
Метод сжатия : С потерями
Размер потока : 71,7 Мбайт (6%)
Язык : French
Default : Да
Forced : Нет
Текст #1
Идентификатор : 3
Формат : VobSub
Идентификатор кодека : S_VOBSUB
Идентификатор кодека/Информация : Picture based subtitle format used on DVDs
Язык : Russian
Default : Да
Forced : Нет
Текст #2
Идентификатор : 4
Формат : VobSub
Идентификатор кодека : S_VOBSUB
Идентификатор кодека/Информация : Picture based subtitle format used on DVDs
Язык : English
Default : Нет
Forced : Нет
Текст #3
Идентификатор : 5
Формат : VobSub
Идентификатор кодека : S_VOBSUB
Идентификатор кодека/Информация : Picture based subtitle format used on DVDs
Язык : French
Default : Нет
Forced : Нет
Текст #4
Идентификатор : 6
Формат : VobSub
Идентификатор кодека : S_VOBSUB
Идентификатор кодека/Информация : Picture based subtitle format used on DVDs
Язык : German
Default : Нет
Forced : Нет
Текст #5
Идентификатор : 7
Формат : VobSub
Идентификатор кодека : S_VOBSUB
Идентификатор кодека/Информация : Picture based subtitle format used on DVDs
Язык : Dutch
Default : Нет
Forced : Нет
Текст #6
Идентификатор : 8
Формат : VobSub
Идентификатор кодека : S_VOBSUB
Идентификатор кодека/Информация : Picture based subtitle format used on DVDs
Язык : Romanian
Default : Нет
Forced : Нет

Скриншоты

Резервные скриншоты

- [1'196]
[teatrix.ru].t18199.torrent 
Торрент: Зарегистрирован [ 2016-03-17 00:41 ] · ADDC66A538B3F5ED30D2E23FBE3100F580F72F9C

Скачать .torrent

Скачать

12 KB

Статус: проверено
Скачан: 0 раз
Размер: 1.16 GB
terms.php



Быстрый ответ

Имя:

      
Для отправки сообщений необходимо включить JavaScript
Показать сообщения:    

Текущее время: 04-Дек 09:06

Часовой пояс: UTC + 3


Вы можете начинать темы
Вы можете отвечать на сообщения
Вы не можете редактировать свои сообщения
Вы не можете удалять свои сообщения
Вы не можете голосовать в опросах
Вы не можете прикреплять файлы к сообщениям
Вы можете скачивать файлы