Моцарт - суперзвезда / Mozart Superstar (Матиас Гудо / Mathias Goudeau) [2012, документальный, биографический, музыка, DVB] DVO (Видеопродакшн)


Статистика раздачи [Обновить пиров]
Размер:  1.52 GB   |    Зарегистрирован:  8 месяцев 21 день   |    Скачан:  0 раз

Полного источника не было: Никогда

 
   
 
 
 

[Цитировать]

Моцарт - суперзвезда
Mozart Superstar- Год выпуска: 2012
Страна: Франция
Жанр: документальный, биографический, музыка
Продолжительность: 00:51:47
Перевод: Профессиональный (двухголосый закадровый) (Компания "Видеопродакшн")
Русские субтитры: нет
Режиссер: Матиас Гудо / Mathias Goudeau
Описание: Моцарт принадлежит всему миру, мировая звезда, признан и любим, сочетание гения и простого человека. Трагедия его жизни, количество произведений, которые он оставил, счастье, которое он испытывал и его смерть в молодом возрасте - тут есть загадка. Он современен и актуален, он уникален. Через 200 лет после смерти Моцарт стал иконой. Миллионы проданных дисков, фанаты во всем мире, музыка, опередившая время. Новатор, артист-провокатор, он закончил жизнь в нищете в 35 лет. У него трагическая судьба, достойная рок-звезды. Чтобы понять, можно ли сравнить Моцарта с поп-звездами, нужно вернуться в тот момент, когда этот ребенок появился в колыбели, 27 января 1756 года, и над ним склонились не музы рока, а музы гения.
Доп. информация: "Кто есть кто"
Сэмпл: http://www.sendspace.com/file/rqqt1y
качество: DVB-S
формат: MPEG-PS (См. при проблемах с просмотром видео)
Видео: MPEG Video 2, 720x576@768x576 (4:3), 25 fps, ~3929 kbps avg, 0.379 bit/pixel
Аудио: 48 kHz, MPEG Audio 2, 2 ch, ~192.00 kbps avg

MediaInfo

Полное имя                               : H:\My Torrents\[apreder]Mozart_Superstar(2012)DVB.mpg
Формат : MPEG-PS
Размер файла : 1,52 Гбайт
Продолжительность : 51 м.
Режим общего битрейта : Переменный
Общий поток : 4204 Кбит/сек
Видео
Идентификатор : 224 (0xE0)
Формат : MPEG Video
Версия формата : Version 2
Профиль формата : Main@Main
Параметр BVOP формата : Да
Параметр матрицы формата : Выборочная
Параметр GOP формата : Variable
Продолжительность : 51 м.
Вид битрейта : Переменный
Битрейт : 3929 Кбит/сек
Ширина : 720 пикселей
Высота : 576 пикселей
Соотношение сторон : 4:3
Частота кадров : 25,000 кадров/сек
Стандарт вещания : PAL
Цветовое пространство : YUV
Субдискретизация насыщенности : 4:2:0
Битовая глубина : 8 бит
Тип развёртки : Чересстрочная
Порядок развёртки : Верхнее поле первое
Метод сжатия : С потерями
Бит/(Пиксели*Кадры) : 0.379
Временной код первого кадра : 00:00:00:00
Оригинал временного кода : Group of pictures header
Размер потока : 1,42 Гбайт (93%)
Аудио
Идентификатор : 192 (0xC0)
Формат : MPEG Audio
Версия формата : Version 1
Профиль формата : Layer 2
Продолжительность : 51 м.
Вид битрейта : Постоянный
Битрейт : 192 Кбит/сек
Каналы : 2 канала
Частота : 48,0 КГц
Метод сжатия : С потерями
Размер потока : 71,2 Мбайт (5%)

Скриншоты


Резервные скриншоты


-1'197/1'178√[-4]
[teatrix.ru].t18200.torrent 
Торрент: Зарегистрирован [ 2016-03-17 00:41 ] · 0170DA5492DB9A1CD772CB14E4526E7BD2CAAFCD

Скачать .torrent

Скачать

16 KB

Статус: проверено
Скачан: 0 раз
Размер: 1.52 GB
terms.php



Быстрый ответ

Имя:

      
Для отправки сообщений необходимо включить JavaScript
Показать сообщения:    

Текущее время: 07-Дек 17:29

Часовой пояс: UTC + 3


Вы можете начинать темы
Вы можете отвечать на сообщения
Вы не можете редактировать свои сообщения
Вы не можете удалять свои сообщения
Вы не можете голосовать в опросах
Вы не можете прикреплять файлы к сообщениям
Вы можете скачивать файлы