(Piano sonata) Н.Мясковский - Фортепианные сонаты №№1-9 [9] (Endre Hegedus) - 1989-92, FLAC (image+.cue) lossless


 

[Цитировать]

Nikolai MIASKOVSKY
Piano Sonatas (Complete)
Endre Hegedüs - piano
-

Vol.1

Жанр: Piano sonata
Страна-производитель диска: Germany
Год издания диска: 1990
Издатель (лейбл): Marco Polo
Дата записи: 08.1989
Аудиокодек: FLAC
Тип рипа: image+.cue
Битрейт аудио: lossless
Продолжительность: 63'09''
Источник: собственный рип
Наличие сканов в содержимом раздачи: да
Треклист:
Соната №2:
[1] Lento, ma deciso - Allegro affanato
Соната №5:
[2] I. Allegro capriccioso
[3] II. Largo espressivo
[4] III. Vivo
[5] IV. Allegro energico
Соната №3:
[6] Con desiderio, improvisato

Лог создания рипа

Exact Audio Copy V1.0 beta 3 from 29. August 2011
EAC extraction logfile from 16. February 2014, 16:00
Endre Hegedus / Nikolai Miaskovsky - Piano sonatas Vol.1
Used drive : COMPAQ CD-ROM LTN403 Adapter: 0 ID: 0
Read mode : Secure
Utilize accurate stream : Yes
Defeat audio cache : Yes
Make use of C2 pointers : No
Read offset correction : -1164
Overread into Lead-In and Lead-Out : No
Fill up missing offset samples with silence : Yes
Delete leading and trailing silent blocks : No
Null samples used in CRC calculations : Yes
Used interface : Native Win32 interface for Win NT & 2000
Used output format : User Defined Encoder
Selected bitrate : 1024 kBit/s
Quality : High
Add ID3 tag : No
Command line compressor : C:\Program Files\FLAC\flac.exe
Additional command line options : -T"COMMENT=rip by el coronel" -8 -V %source%
TOC of the extracted CD
Track | Start | Length | Start sector | End sector
---------------------------------------------------------
1 | 0:00.00 | 20:03.00 | 0 | 90224
2 | 20:03.00 | 7:37.00 | 90225 | 124499
3 | 27:40.00 | 5:22.00 | 124500 | 148649
4 | 33:02.00 | 4:26.72 | 148650 | 168671
5 | 37:28.72 | 7:11.03 | 168672 | 200999
6 | 44:40.00 | 18:29.00 | 201000 | 284174
Range status and errors
Selected range
Filename D:\Nikolai Miaskovsky - Piano sonatas Vol.1.wav
Peak level 93.6 %
Extraction speed 3.0 X
Range quality 99.9 %
Test CRC CBAA174A
Copy CRC CBAA174A
Copy OK
No errors occurred
End of status report
==== Log checksum 8804BB4DBA66316D22A71472E8B11DB97F1A7D105F643DB92ADE23B36B86BBA4 ====

Содержание индексной карты (.CUE)

REM GENRE Classical
REM DATE 1990
REM DISCID 4A0ECD06
REM COMMENT "ExactAudioCopy v1.0b3"
PERFORMER "Endre Hegedus"
TITLE "Nikolai Miaskovsky - Piano sonatas Vol.1"
FILE "Nikolai Miaskovsky - Piano sonatas Vol.1.flac" WAVE
TRACK 01 AUDIO
TITLE "Sonata No.2: Lento, ma deciso - Allegro affanato"
PERFORMER "Endre Hegedus"
INDEX 01 00:00:00
TRACK 02 AUDIO
TITLE "Sonata No.5: I. Allegro capriccioso"
PERFORMER "Endre Hegedus"
INDEX 00 20:02:74
INDEX 01 20:03:00
TRACK 03 AUDIO
TITLE "II. Largo espressivo"
PERFORMER "Endre Hegedus"
INDEX 00 27:39:70
INDEX 01 27:40:00
TRACK 04 AUDIO
TITLE "III. Vivo"
PERFORMER "Endre Hegedus"
INDEX 00 33:01:66
INDEX 01 33:02:00
TRACK 05 AUDIO
TITLE "IV. Allegro energico"
PERFORMER "Endre Hegedus"
INDEX 00 37:28:68
INDEX 01 37:28:72
TRACK 06 AUDIO
TITLE "Sonata No.3: Con desiderio, improvisato"
PERFORMER "Endre Hegedus"
INDEX 00 44:39:69
INDEX 01 44:40:00

Vol.2

Жанр: Piano sonata
Страна-производитель диска: Japan
Год издания диска: 1989
Издатель (лейбл): Marco Polo
Дата записи: 17-21.09.1988
Аудиокодек: FLAC
Тип рипа: image+.cue
Битрейт аудио: lossless
Продолжительность: 56'42''
Источник: собственный рип
Наличие сканов в содержимом раздачи: да
Треклист:
Соната №6:
[01] I. Allegro ma non troppo
[02] II. Andante con sentimento
[03] III. Molto vivo
Соната №7:
[04] I. Allegro moderato
[05] II. Andante pensieroso
[06] III. Allegro glocoso
Соната №8:
[07] I. Allegretto
[08] II. Andante cantabile
[09] III. Rondo. Vivo
Соната №9:
[10] I. Allegro non troppo
[11] II. Andante sostenuto
[12] III. Rondo. Molto vivo

Лог создания рипа

Exact Audio Copy V1.0 beta 4 from 7. December 2014
EAC extraction logfile from 1. August 2015, 18:35
Endre Hegedus / Nikolai Miaskovsky - Piano Sonatas Vol.2
Used drive : HL-DT-STDVD+-RW GU90N Adapter: 1 ID: 0
Read mode : Secure
Utilize accurate stream : Yes
Defeat audio cache : Yes
Make use of C2 pointers : No
Read offset correction : 102
Overread into Lead-In and Lead-Out : No
Fill up missing offset samples with silence : Yes
Delete leading and trailing silent blocks : No
Null samples used in CRC calculations : Yes
Used interface : Native Win32 interface for Win NT & 2000
Used output format : User Defined Encoder
Selected bitrate : 1024 kBit/s
Quality : High
Add ID3 tag : No
Command line compressor : C:\Program Files (x86)\FLAC\flac.exe
Additional command line options : -T "COMMENT=rip by el coronel" -8 -V %source%
TOC of the extracted CD
Track | Start | Length | Start sector | End sector
---------------------------------------------------------
1 | 0:00.00 | 7:13.25 | 0 | 32499
2 | 7:13.25 | 6:34.38 | 32500 | 62087
3 | 13:47.63 | 6:33.20 | 62088 | 91582
4 | 20:21.08 | 4:05.67 | 91583 | 110024
5 | 24:27.00 | 3:56.43 | 110025 | 127767
6 | 28:23.43 | 2:40.32 | 127768 | 139799
7 | 31:04.00 | 5:24.00 | 139800 | 164099
8 | 36:28.00 | 4:06.05 | 164100 | 182554
9 | 40:34.05 | 3:47.05 | 182555 | 199584
10 | 44:21.10 | 4:38.48 | 199585 | 220482
11 | 48:59.58 | 4:19.55 | 220483 | 239962
12 | 53:19.38 | 3:22.72 | 239963 | 255184
Range status and errors
Selected range
Filename F:\Music\Myaskovsky - Complete Piano Sonatas (Hegedus)\Vol.2\Nikolai Miaskovsky - Piano sonatas Vol.2.wav
Peak level 100.0 %
Extraction speed 4.6 X
Range quality 100.0 %
Test CRC E02F0413
Copy CRC E02F0413
Copy OK
No errors occurred
AccurateRip summary
Track 1 accurately ripped (confidence 1) [31B88AE2] (AR v2)
Track 2 accurately ripped (confidence 1) [5868A020] (AR v2)
Track 3 accurately ripped (confidence 1) [55B555D5] (AR v2)
Track 4 accurately ripped (confidence 1) [561F6C7E] (AR v2)
Track 5 accurately ripped (confidence 1) [439EC75A] (AR v2)
Track 6 accurately ripped (confidence 1) [E1A9705C] (AR v2)
Track 7 accurately ripped (confidence 1) [58F433BC] (AR v2)
Track 8 accurately ripped (confidence 1) [F0B95442] (AR v2)
Track 9 accurately ripped (confidence 1) [4ACCF0CF] (AR v2)
Track 10 accurately ripped (confidence 1) [BFECE7F0] (AR v2)
Track 11 accurately ripped (confidence 1) [8B71F679] (AR v2)
Track 12 accurately ripped (confidence 1) [AFD4BD4B] (AR v2)
All tracks accurately ripped
End of status report
---- CUETools DB Plugin V2.1.4
[CTDB TOCID: YKB.pdFFuk.MAcRiw2G6UHSrGJ0-] disk not present in database
Submit result: YKB.pdFFuk.MAcRiw2G6UHSrGJ0- has been uploaded
==== Log checksum DB3735B54DAC636CBB3854948235F53614AE4A204D8F114CB29F295B70D25087 ====

Содержание индексной карты (.CUE)

REM GENRE Classical
REM DATE 1989
REM DISCID A10D4A0C
REM COMMENT "ExactAudioCopy v1.0b4"
PERFORMER "Endre Hegedus"
TITLE "Nikolai Miaskovsky - Piano Sonatas Vol.2"
FILE "Nikolai Miaskovsky - Piano sonatas Vol.2.flac" WAVE
TRACK 01 AUDIO
TITLE "Sonata No.6: I. Allegro ma non troppo "
PERFORMER "Endre Hegedus"
INDEX 01 00:00:00
TRACK 02 AUDIO
TITLE "II. Andante con sentimento "
PERFORMER "Endre Hegedus"
INDEX 00 07:10:08
INDEX 01 07:13:25
TRACK 03 AUDIO
TITLE "III. Molto vivo"
PERFORMER "Endre Hegedus"
INDEX 00 13:47:08
INDEX 01 13:47:63
TRACK 04 AUDIO
TITLE "Sonata No.7: I. Allegro moderato "
PERFORMER "Endre Hegedus"
INDEX 00 20:17:48
INDEX 01 20:21:08
TRACK 05 AUDIO
TITLE "II. Andante pensieroso"
PERFORMER "Endre Hegedus"
INDEX 00 24:24:58
INDEX 01 24:27:00
TRACK 06 AUDIO
TITLE "III. Allegro glocoso "
PERFORMER "Endre Hegedus"
INDEX 00 28:22:33
INDEX 01 28:23:43
TRACK 07 AUDIO
TITLE "Sonata No.8: I. Allegretto "
PERFORMER "Endre Hegedus"
INDEX 00 30:59:65
INDEX 01 31:04:00
TRACK 08 AUDIO
TITLE "II. Andante cantabile "
PERFORMER "Endre Hegedus"
INDEX 00 36:26:50
INDEX 01 36:28:00
TRACK 09 AUDIO
TITLE "III. Rondo. Vivo "
PERFORMER "Endre Hegedus"
INDEX 00 40:32:35
INDEX 01 40:34:05
TRACK 10 AUDIO
TITLE "Sonata No.9: I. Allegro non troppo "
PERFORMER "Endre Hegedus"
INDEX 00 44:16:68
INDEX 01 44:21:10
TRACK 11 AUDIO
TITLE "II. Andante sostenuto "
PERFORMER "Endre Hegedus"
INDEX 00 48:56:58
INDEX 01 48:59:58
TRACK 12 AUDIO
TITLE "III. Rondo. Molto vivo "
PERFORMER "Endre Hegedus"
INDEX 00 53:16:45
INDEX 01 53:19:38

Vol.3

Жанр: Piano sonata
Страна-производитель диска: Denmark
Год издания диска: 1992
Издатель (лейбл): Marco Polo
Дата записи: 1990/91
Аудиокодек: FLAC
Тип рипа: image+.cue
Битрейт аудио: lossless
Продолжительность: 64'03''
Источник: собственный рип
Наличие сканов в содержимом раздачи: да
Треклист:
Соната №1:
[01] I. Moderato assai ed espressivo
[02] II. Allegro affanato – Allegro con fuoco – Allegro precipitato, quasi coda
[03] III. Largo espressivo
[04] IV. Non allegro – Allegro – Molto moderato – Maestoso e patetico
Соната №4:
[05] I. Allegro moderato, irato – Largamente
[06] II. Andante non troppo quasi sarabanda
[07] III. Allegro con brio – Tranquillo – Tempo I

Лог создания рипа

Exact Audio Copy V1.1 from 23. June 2015
EAC extraction logfile from 22. February 2016, 15:14
Endre Hegedus / Nikolai Miaskovsky - Piano sonatas Vol.3
Used drive : TEAC CD-W540E Adapter: 1 ID: 1
Read mode : Secure
Utilize accurate stream : Yes
Defeat audio cache : Yes
Make use of C2 pointers : No
Read offset correction : 686
Overread into Lead-In and Lead-Out : No
Fill up missing offset samples with silence : Yes
Delete leading and trailing silent blocks : No
Null samples used in CRC calculations : Yes
Used interface : Native Win32 interface for Win NT & 2000
Used output format : User Defined Encoder
Selected bitrate : 896 kBit/s
Quality : High
Add ID3 tag : No
Command line compressor : C:\Program Files\flac-1.3.1pre1-win\win64\flac.exe
Additional command line options : -T "COMMENT=rip by el coronel" -8 -V %source%
TOC of the extracted CD
Track | Start | Length | Start sector | End sector
---------------------------------------------------------
1 | 0:00.00 | 3:58.35 | 0 | 17884
2 | 3:58.35 | 7:55.20 | 17885 | 53529
3 | 11:53.55 | 7:08.17 | 53530 | 85646
4 | 19:01.72 | 12:53.08 | 85647 | 143629
5 | 31:55.05 | 16:33.15 | 143630 | 218119
6 | 48:28.20 | 6:41.32 | 218120 | 248226
7 | 55:09.52 | 8:53.58 | 248227 | 288259
Range status and errors
Selected range
Filename F:\Music\Myaskovsky - Complete Piano Sonatas (Hegedus)\Vol.3\Nikolai Miaskovsky - Piano sonatas Vol.3.wav
Peak level 98.2 %
Extraction speed 4.9 X
Range quality 100.0 %
Test CRC 75B14407
Copy CRC 75B14407
Copy OK
No errors occurred
AccurateRip summary
Track 1 accurately ripped (confidence 2) [62973BD3] (AR v1)
Track 2 accurately ripped (confidence 2) [906EA304] (AR v1)
Track 3 accurately ripped (confidence 2) [EA4F7EF9] (AR v1)
Track 4 accurately ripped (confidence 2) [10E9F742] (AR v1)
Track 5 accurately ripped (confidence 2) [EC2F8260] (AR v1)
Track 6 accurately ripped (confidence 2) [C50950D4] (AR v1)
Track 7 accurately ripped (confidence 1) [B849AE79] (AR v2)
All tracks accurately ripped
End of status report
---- CUETools DB Plugin V2.1.6
[CTDB TOCID: LO9PAWkITIocxbQoy6014HttRsM-] found
Submit result: LO9PAWkITIocxbQoy6014HttRsM- has been confirmed
Track | CTDB Status
1 | (1/1) Accurately ripped
2 | (1/1) Accurately ripped
3 | (1/1) Accurately ripped
4 | (1/1) Accurately ripped
5 | (1/1) Accurately ripped
6 | (1/1) Accurately ripped
7 | (1/1) Accurately ripped
==== Log checksum 9841A6358CA798D77175571B1097EE11368ADC32A9F1ECF8317750FD49BF9A19 ====

Содержание индексной карты (.CUE)

REM GENRE Classical
REM DATE 1992
REM DISCID 440F0307
REM COMMENT "ExactAudioCopy v1.1"
PERFORMER "Endre Hegedus"
TITLE "Nikolai Miaskovsky - Piano sonatas Vol.3"
FILE "Nikolai Miaskovsky - Piano sonatas Vol.3.flac" WAVE
TRACK 01 AUDIO
TITLE "Sonata No.1: I. Moderato assai ed espressivo"
PERFORMER "Endre Hegedus"
INDEX 01 00:00:00
TRACK 02 AUDIO
TITLE "II. Allegro affanato – Allegro con fuoco – Allegro precipitato, quasi coda"
PERFORMER "Endre Hegedus"
INDEX 01 03:58:35
TRACK 03 AUDIO
TITLE "III. Largo espressivo"
PERFORMER "Endre Hegedus"
INDEX 00 11:50:65
INDEX 01 11:53:55
TRACK 04 AUDIO
TITLE "IV. Non allegro – Allegro – Molto moderato – Maestoso e patetico"
PERFORMER "Endre Hegedus"
INDEX 00 19:00:22
INDEX 01 19:01:72
TRACK 05 AUDIO
TITLE "Sonata No.4: I. Allegro moderato, irato – Largamente"
PERFORMER "Endre Hegedus"
INDEX 00 31:51:70
INDEX 01 31:55:05
TRACK 06 AUDIO
TITLE "II. Andante non troppo quasi sarabanda"
PERFORMER "Endre Hegedus"
INDEX 00 48:26:70
INDEX 01 48:28:20
TRACK 07 AUDIO
TITLE "III. Allegro con brio – Tranquillo – Tempo I"
PERFORMER "Endre Hegedus"
INDEX 00 55:07:17
INDEX 01 55:09:52
-



Показать сообщения:    

Текущее время: 11-Дек 05:22

Часовой пояс: UTC + 3


Вы не можете начинать темы
Вы не можете отвечать на сообщения
Вы не можете редактировать свои сообщения
Вы не можете удалять свои сообщения
Вы не можете голосовать в опросах
Вы не можете прикреплять файлы к сообщениям
Вы не можете скачивать файлы