Кухня, фильм о фильме (Дмитрий Дьяченко) [2014, Документальный, познавательный, DVB (AVC) - Horizons 2 at 85.0°E]


Статистика раздачи [Обновить пиров]
Размер:  1.18 GB   |    Зарегистрирован:  8 месяцев 25 дней   |    Скачан:  0 раз

Полного источника не было: Никогда

 
   
 
 
 

[Цитировать]

Кухня, фильм о фильме
Год выпуска: 2014
Страна: Россия, ЗАО "ВБД Груп"
Жанр: Документальный, познавательный
Продолжительность: 00:47:37
Перевод: Не требуется
Режиссер: Дмитрий Дьяченко
Описание: Фильм о сериале «Кухня»
Раздача группы:
Сэмпл
качество: DVB
формат: TS
Видео: AVC, 720х576 (4:3), 3105 Kbps, 25 fps, Bits/(Pixel*Frame) : 0.299
Аудио: MP2, 256 Kbps, 48.0 KHz, 2 ch

MediaInfo

G:\Документалистика\Кухня, фильм о фильме.ts
General #1
ID : 1 (0x1)
Complete name : G:\Документалистика\Кухня, фильм о фильме.ts
Format : MPEG-TS
File size : 1.18 GiB
Duration : 47mn 37s
Overall bit rate : 3 538 Kbps
Video #1250
ID : 1250 (0x4E2)
Menu ID : 1 (0x1)
Format : AVC
Format/Info : Advanced Video Codec
Format profile : High@L3.0
Format settings, CABAC : Yes
Format settings, ReFrames : 3 frames
Codec ID : 27
Duration : 47mn 37s
Bit rate : 3 105 Kbps
Width : 720 pixels
Height : 576 pixels
Display aspect ratio : 4:3
Frame rate : 25.000 fps
Standard : Component
Color space : YUV
Chroma subsampling : 4:2:0
Bit depth : 8 bits
Scan type : Interlaced
Scan order : Top Field First
Bits/(Pixel*Frame) : 0.299
Stream size : 1.03 GiB (88%)
Color primaries : BT.470-6 System B, BT.470-6 System G, BT.601-6 625, BT.1358 625, BT.1700 625 PAL, BT.1700 625 SECAM
Transfer characteristics : BT.470-6 System B, BT.470-6 System G
Matrix coefficients : BT.470-6 System B, BT.470-6 System G, BT.601-6 625, BT.1358 625, BT.1700 625 PAL, BT.1700 625 SECAM, IEC 61966-2-4 601
Audio #2250
ID : 2250 (0x8CA)
Menu ID : 1 (0x1)
Format : MPEG Audio
Format version : Version 1
Format profile : Layer 2
Codec ID : 3
Duration : 47mn 37s
Bit rate mode : Constant
Bit rate : 256 Kbps
Channel(s) : 2 channels
Sampling rate : 48.0 KHz
Compression mode : Lossy
Stream size : 87.2 MiB (7%)
Language : English

Скриншоты

[teatrix.ru].t18205.torrent 
Торрент: Зарегистрирован [ 2016-03-17 00:41 ] · A28C431EDDB03670DE39BAB0089B6AE9EEDDA3C5

Скачать .torrent

Скачать

12 KB

Статус: проверено
Скачан: 0 раз
Размер: 1.18 GB
terms.php



Показать сообщения:    

Текущее время: 11-Дек 01:24

Часовой пояс: UTC + 3


Вы не можете начинать темы
Вы не можете отвечать на сообщения
Вы не можете редактировать свои сообщения
Вы не можете удалять свои сообщения
Вы не можете голосовать в опросах
Вы не можете прикреплять файлы к сообщениям
Вы можете скачивать файлы