(Classical, sacred) Antonio Caldara - Missa Dolorosa; Stabat Mater - Coro della Radio Svizzera, Aura Musicale, Budapest, Rene Clemencic - 2000, FLAC (image+.cue) lossless


Статистика раздачи [Обновить пиров]
Размер:  277 MB   |    Зарегистрирован:  8 месяцев 18 дней   |    Скачан:  0 раз

Полного источника не было: Никогда

 
   
 
 
 

[Цитировать]

Antonio Caldara - Missa Dolorosa; Stabat Mater - Coro della Radio Svizzera, Aura Musicale, Budapest, René Clemencic
Жанр: Classical, sacred
Год издания диска: 2000
Издатель (лейбл): Naxos
Номер по каталогу: 8.554715
Дата записи: 1997
Аудиокодек: FLAC
Тип рипа: image+.cue
Битрейт аудио: lossless
Продолжительность: 63:09
Источник: собственный рип
Наличие сканов в содержимом раздачи: да
Треклист:
Antonio Caldara (c.1670–1736)
[1] Sinfonia in G minor (from Sant’Elena al Calvario. Oratorio (1731))
[2]-[13] Stabat Mater
[14] Sinfonia in E minor (from Gioseffo che interpreta i sogni. Oratorio (1726))
[15]-[20] Missa Dolorosa
Исполнители:
Coro della Radio Svizzera • Diego Fasolis chorusmaster
Aura Musicale, Budapest • René Clemencic director

Лог создания рипа

Exact Audio Copy V1.0 beta 3 from 29. August 2011
EAC extraction logfile from 7. January 2014, 14:12
Coro della Radio Svizzera Italiana, Aura Musicale, Rene Clemencic / Caldara - Missa Dolorosa; Stabat Mater
Used drive : HL-DT-STDVDRRW GWA-4164B Adapter: 5 ID: 0
Read mode : Secure
Utilize accurate stream : Yes
Defeat audio cache : Yes
Make use of C2 pointers : No
Read offset correction : 102
Overread into Lead-In and Lead-Out : No
Fill up missing offset samples with silence : Yes
Delete leading and trailing silent blocks : No
Null samples used in CRC calculations : Yes
Used interface : Native Win32 interface for Win NT & 2000
Used output format : User Defined Encoder
Selected bitrate : 896 kBit/s
Quality : High
Add ID3 tag : No
Command line compressor : C:\Program Files\Exact Audio Copy\FLAC\FLAC.EXE
Additional command line options : -V -8 %source%
TOC of the extracted CD
Track | Start | Length | Start sector | End sector
---------------------------------------------------------
1 | 0:00.00 | 4:49.57 | 0 | 21731
2 | 4:49.57 | 1:38.20 | 21732 | 29101
3 | 6:28.02 | 1:53.25 | 29102 | 37601
4 | 8:21.27 | 4:36.68 | 37602 | 58369
5 | 12:58.20 | 1:03.32 | 58370 | 63126
6 | 14:01.52 | 1:48.60 | 63127 | 71286
7 | 15:50.37 | 1:01.60 | 71287 | 75921
8 | 16:52.22 | 1:05.53 | 75922 | 80849
9 | 17:58.00 | 1:28.05 | 80850 | 87454
10 | 19:26.05 | 2:32.25 | 87455 | 98879
11 | 21:58.30 | 0:58.30 | 98880 | 103259
12 | 22:56.60 | 1:36.12 | 103260 | 110471
13 | 24:32.72 | 2:11.35 | 110472 | 120331
14 | 26:44.32 | 3:46.40 | 120332 | 137321
15 | 30:30.72 | 6:53.30 | 137322 | 168326
16 | 37:24.27 | 12:51.23 | 168327 | 226174
17 | 50:15.50 | 6:07.70 | 226175 | 253769
18 | 56:23.45 | 1:06.47 | 253770 | 258766
19 | 57:30.17 | 1:54.23 | 258767 | 267339
20 | 59:24.40 | 3:42.32 | 267340 | 284021
Range status and errors
Selected range
Filename D:\temp\Music\Naxos_8.554715 - Caldara - Missa Dolorosa; Stabat Mater\Caldara - Missa Dolorosa; Stabat Mater.wav
Peak level 98.8 %
Extraction speed 3.8 X
Range quality 100.0 %
Test CRC 28E8A102
Copy CRC 28E8A102
Copy OK
No errors occurred
AccurateRip summary
Track 1 accurately ripped (confidence 4) [C5410471] (AR v2)
Track 2 accurately ripped (confidence 4) [05C2316B] (AR v2)
Track 3 accurately ripped (confidence 4) [8C419CCD] (AR v2)
Track 4 accurately ripped (confidence 4) [4892059C] (AR v2)
Track 5 accurately ripped (confidence 4) [26DF89C6] (AR v2)
Track 6 accurately ripped (confidence 4) [4EDC5817] (AR v2)
Track 7 accurately ripped (confidence 4) [786F6842] (AR v2)
Track 8 accurately ripped (confidence 4) [F5B8A114] (AR v2)
Track 9 accurately ripped (confidence 4) [2E275EC2] (AR v2)
Track 10 accurately ripped (confidence 4) [E6ED3C3D] (AR v2)
Track 11 accurately ripped (confidence 4) [7EA28A0A] (AR v2)
Track 12 accurately ripped (confidence 4) [322E1D02] (AR v2)
Track 13 accurately ripped (confidence 4) [EE647FEA] (AR v2)
Track 14 accurately ripped (confidence 4) [CE0F440E] (AR v2)
Track 15 accurately ripped (confidence 4) [C12127C8] (AR v2)
Track 16 accurately ripped (confidence 4) [239AD389] (AR v2)
Track 17 accurately ripped (confidence 4) [0543A7BB] (AR v2)
Track 18 accurately ripped (confidence 4) [EA1AF2E4] (AR v2)
Track 19 accurately ripped (confidence 4) [6878DABC] (AR v2)
Track 20 accurately ripped (confidence 4) [B0D91C74] (AR v2)
All tracks accurately ripped
End of status report
==== Log checksum 2497072230B664BAA86A957017995ACE5DF194A9892421212B40A27DF2D62BB5 ====
[teatrix.ru].t18210.torrent 
Торрент: Зарегистрирован [ 2016-03-17 00:41 ] · 8930D94D8DAE6CA445DC87CA143449BD9380E96A

Скачать .torrent

Скачать

23 KB

Статус: проверено
Скачан: 0 раз
Размер: 277 MB
terms.php



Быстрый ответ

Имя:

      
Для отправки сообщений необходимо включить JavaScript
Показать сообщения:    

Текущее время: 04-Дек 19:23

Часовой пояс: UTC + 3


Вы можете начинать темы
Вы можете отвечать на сообщения
Вы не можете редактировать свои сообщения
Вы не можете удалять свои сообщения
Вы не можете голосовать в опросах
Вы не можете прикреплять файлы к сообщениям
Вы можете скачивать файлы