(Classical, Christmas) Witold Lutoslawski - Twenty Polish Christmas Carols, Lacrimosa, Five Songs {Polish National Polish Radio Chorus, Radio Symphony Orchestra, Antoni Wit} - 2005, FLAC (tracks+.cue), lossless


Статистика раздачи [Обновить пиров]
Размер:  202 MB   |    Зарегистрирован:  8 месяцев 22 дня   |    Скачан:  0 раз

Полного источника не было: Никогда

 
   
 
 
 

[Цитировать]

Witold Lutoslawski - Twenty Polish Christmas Carols, Lacrimosa, Five Songs {Polish National Polish Radio Chorus, Radio Symphony Orchestra, Antoni Wit}
Жанр: Classical, Christmas
Страна-производитель диска: EU
Год издания диска: 2005
Издатель (лейбл): Naxos
Номер по каталогу: 8555994
Аудиокодек: FLAC
Тип рипа: tracks+.cue
Битрейт аудио: lossless
Продолжительность: 54:20
Источник (релизер): Affogato (what)
Наличие сканов в содержимом раздачи: нет
Треклист:
Witold Lutoslawski (1913-1994)
Twenty Polish Christmas Carols:
01. Angels to the shepherds came (2:02)
02. Hey! We rejoice now (0:48)
03. When the Christ to us is born (2:04)
04. Just after midnight (1:28)
05. God is born (2:18)
06. Our Lovely Lady (3:23)
07. Hurrying to Bethlehem (0:54)
08. In a manger (2:06)
09. Jesus there is lying (1:31)
10. We are shepherds (1:42)
11. Lullaby, Jesus (1:58)
12. Hey, on this day (1:13)
13. Jesus lovely flower (3:49)
14. Hey la, Hey la, shepherds there you are (2:28)
15. What to do with this child? (1:44)
16. Hey, hey lovely Lady Mary (2:23)
17. This is our Lord's birthday (1:56)
18. Shepherds, can you tell? (1:55)
19. Infant so tiny (2:12)
20. Holy Lady Mary (2:17)
21. Lacrimosa (3:37)
Five Songs:
22. The Sea (2:48)
23. The Wind (1:08)
24. Winter (2:57)
25. Knights (1:31)
26. Church Bells (2:08)
Исполнители:
Polish Radio Chorus, Kraców
Polish National Radio Symphony Orchestra (Katowice)
Antoni Wit - conductor
Olga Pasichnyk - soprano (#1-21)
Jadwiga Rappe - mezzo-soprano (#22-26)

Лог создания рипа

Exact Audio Copy V1.0 beta 3 from 29. August 2011
EAC extraction logfile from 24. September 2012, 21:37
Polish National Radio Symphony Orchestra / Twenty Polish Christmas Carols
Used drive : PIONEER DVD-RW DVR-216 Adapter: 3 ID: 0
Read mode : Secure
Utilize accurate stream : Yes
Defeat audio cache : Yes
Make use of C2 pointers : No
Read offset correction : 96
Overread into Lead-In and Lead-Out : No
Fill up missing offset samples with silence : Yes
Delete leading and trailing silent blocks : No
Null samples used in CRC calculations : Yes
Used interface : Native Win32 interface for Win NT & 2000
Gap handling : Appended to previous track
Used output format : User Defined Encoder
Selected bitrate : 1024 kBit/s
Quality : High
Add ID3 tag : No
Command line compressor : C:\Program Files\Exact Audio Copy\Flac\flac.exe
Additional command line options : -8 -V -T "ARTIST=%artist%" -T "TITLE=%title%" -T "ALBUM=%albumtitle%" -T "DATE=%year%" -T "TRACKNUMBER=%tracknr%" -T "GENRE=%genre%" -T "PERFORMER=%albuminterpret%" -T "COMPOSER=%composer%" %haslyrics%--tag-from-file=LYRICS="%lyricsfile%"%haslyrics% -T "ALBUMARTIST=%albumartist%" -T "ALBUM ARTIST=%albumartist%" -T "DISCNUMBER=%cdnumber%" -T "TOTALDISCS=%totalcds%" -T "TOTALTRACKS=%numtracks%" -T "COMMENT=%comment%" %source% -o %dest%
TOC of the extracted CD
Track | Start | Length | Start sector | End sector
---------------------------------------------------------
1 | 0:00.00 | 2:01.72 | 0 | 9146
2 | 2:01.72 | 0:48.03 | 9147 | 12749
3 | 2:50.00 | 2:04.00 | 12750 | 22049
4 | 4:54.00 | 1:28.00 | 22050 | 28649
5 | 6:22.00 | 2:18.00 | 28650 | 38999
6 | 8:40.00 | 3:23.00 | 39000 | 54224
7 | 12:03.00 | 0:54.00 | 54225 | 58274
8 | 12:57.00 | 2:06.00 | 58275 | 67724
9 | 15:03.00 | 1:31.00 | 67725 | 74549
10 | 16:34.00 | 1:41.72 | 74550 | 82196
11 | 18:15.72 | 1:58.00 | 82197 | 91046
12 | 20:13.72 | 1:13.03 | 91047 | 96524
13 | 21:27.00 | 3:48.72 | 96525 | 113696
14 | 25:15.72 | 2:28.03 | 113697 | 124799
15 | 27:44.00 | 1:44.00 | 124800 | 132599
16 | 29:28.00 | 2:23.00 | 132600 | 143324
17 | 31:51.00 | 1:55.72 | 143325 | 152021
18 | 33:46.72 | 1:55.03 | 152022 | 160649
19 | 35:42.00 | 2:12.00 | 160650 | 170549
20 | 37:54.00 | 2:16.72 | 170550 | 180821
21 | 40:10.72 | 3:37.03 | 180822 | 197099
22 | 43:48.00 | 2:48.10 | 197100 | 209709
23 | 46:36.10 | 1:08.00 | 209710 | 214809
24 | 47:44.10 | 2:57.00 | 214810 | 228084
25 | 50:41.10 | 1:31.00 | 228085 | 234909
26 | 52:12.10 | 2:07.65 | 234910 | 244499
Track 1
Filename C:\_gramophone\01 - Twenty Polish Christmas Carols - Angels to the shepherds came.wav
Pre-gap length 0:00:02.00
Peak level 78.0 %
Extraction speed 4.1 X
Track quality 100.0 %
Test CRC E9DC17FF
Copy CRC E9DC17FF
Accurately ripped (confidence 5) [51C92FAB] (AR v1)
Copy OK
Track 2
Filename C:\_gramophone\02 - Twenty Polish Christmas Carols - Hey! We rejoice now.wav
Pre-gap length 0:00:03.69
Peak level 86.3 %
Extraction speed 3.1 X
Track quality 100.0 %
Test CRC B7129607
Copy CRC B7129607
Accurately ripped (confidence 5) [15658B62] (AR v1)
Copy OK
Track 3
Filename C:\_gramophone\03 - Twenty Polish Christmas Carols - When the Christ to us is born.wav
Pre-gap length 0:00:05.00
Peak level 75.1 %
Extraction speed 4.4 X
Track quality 100.0 %
Test CRC A810E1C9
Copy CRC A810E1C9
Accurately ripped (confidence 5) [1C3EDFAD] (AR v1)
Copy OK
Track 4
Filename C:\_gramophone\04 - Twenty Polish Christmas Carols - Just after midnight.wav
Pre-gap length 0:00:05.20
Peak level 72.6 %
Extraction speed 4.1 X
Track quality 100.0 %
Test CRC A0147DB5
Copy CRC A0147DB5
Accurately ripped (confidence 5) [5E6E15AA] (AR v1)
Copy OK
Track 5
Filename C:\_gramophone\05 - Twenty Polish Christmas Carols - God is born.wav
Pre-gap length 0:00:03.97
Peak level 59.9 %
Extraction speed 4.9 X
Track quality 100.0 %
Test CRC EE633622
Copy CRC EE633622
Accurately ripped (confidence 5) [5479148A] (AR v1)
Copy OK
Track 6
Filename C:\_gramophone\06 - Twenty Polish Christmas Carols - Our Lovely Lady.wav
Pre-gap length 0:00:03.97
Peak level 52.0 %
Extraction speed 5.5 X
Track quality 100.0 %
Test CRC 05507F44
Copy CRC 05507F44
Accurately ripped (confidence 5) [2DA0D988] (AR v1)
Copy OK
Track 7
Filename C:\_gramophone\07 - Twenty Polish Christmas Carols - Hurrying to Bethlehem.wav
Pre-gap length 0:00:04.73
Peak level 74.2 %
Extraction speed 3.9 X
Track quality 100.0 %
Test CRC E30AF908
Copy CRC E30AF908
Accurately ripped (confidence 5) [47222D4B] (AR v1)
Copy OK
Track 8
Filename C:\_gramophone\08 - Twenty Polish Christmas Carols - In a manger.wav
Pre-gap length 0:00:02.97
Peak level 78.3 %
Extraction speed 5.3 X
Track quality 100.0 %
Test CRC BEE98FCA
Copy CRC BEE98FCA
Accurately ripped (confidence 5) [C8724C3E] (AR v1)
Copy OK
Track 9
Filename C:\_gramophone\09 - Twenty Polish Christmas Carols - Jesus there is lying.wav
Pre-gap length 0:00:04.37
Peak level 43.9 %
Extraction speed 4.9 X
Track quality 100.0 %
Test CRC C9175F97
Copy CRC C9175F97
Accurately ripped (confidence 5) [4BA69E20] (AR v1)
Copy OK
Track 10
Filename C:\_gramophone\10 - Twenty Polish Christmas Carols - We are shepherds.wav
Pre-gap length 0:00:04.24
Peak level 90.6 %
Extraction speed 5.0 X
Track quality 100.0 %
Test CRC D428BD05
Copy CRC D428BD05
Accurately ripped (confidence 5) [635D0A1B] (AR v1)
Copy OK
Track 11
Filename C:\_gramophone\11 - Twenty Polish Christmas Carols - Lullaby, Jesus.wav
Pre-gap length 0:00:03.62
Peak level 27.5 %
Extraction speed 5.6 X
Track quality 100.0 %
Test CRC EC27EF0E
Copy CRC EC27EF0E
Accurately ripped (confidence 5) [4629A76A] (AR v1)
Copy OK
Track 12
Filename C:\_gramophone\12 - Twenty Polish Christmas Carols - Hey, on this day.wav
Pre-gap length 0:00:03.56
Peak level 85.7 %
Extraction speed 3.7 X
Track quality 99.8 %
Test CRC 4F353CB3
Copy CRC 4F353CB3
Accurately ripped (confidence 5) [F4BF267B] (AR v1)
Copy OK
Track 13
Filename C:\_gramophone\13 - Twenty Polish Christmas Carols - Jesus lovely flower.wav
Pre-gap length 0:00:02.50
Peak level 44.1 %
Extraction speed 6.6 X
Track quality 100.0 %
Test CRC EF9FAC9F
Copy CRC EF9FAC9F
Accurately ripped (confidence 5) [FEA3AED4] (AR v1)
Copy OK
Track 14
Filename C:\_gramophone\14 - Twenty Polish Christmas Carols - Hey la, Hey la, shepherds there you are.wav
Pre-gap length 0:00:06.00
Peak level 83.1 %
Extraction speed 5.3 X
Track quality 99.9 %
Test CRC 7C2A7EA0
Copy CRC 7C2A7EA0
Accurately ripped (confidence 5) [954544C0] (AR v1)
Copy OK
Track 15
Filename C:\_gramophone\15 - Twenty Polish Christmas Carols - What to do with this child.wav
Pre-gap length 0:00:03.77
Peak level 59.6 %
Extraction speed 6.0 X
Track quality 100.0 %
Test CRC 4933432C
Copy CRC 4933432C
Accurately ripped (confidence 5) [4CD8EF7A] (AR v1)
Copy OK
Track 16
Filename C:\_gramophone\16 - Twenty Polish Christmas Carols - Hey, hey lovely Lady Mary.wav
Pre-gap length 0:00:04.53
Peak level 73.2 %
Extraction speed 6.5 X
Track quality 100.0 %
Test CRC 4C9D5DBC
Copy CRC 4C9D5DBC
Accurately ripped (confidence 5) [3B05CC2E] (AR v1)
Copy OK
Track 17
Filename C:\_gramophone\17 - Twenty Polish Christmas Carols - This is our Lord's birthday.wav
Pre-gap length 0:00:02.24
Peak level 70.9 %
Extraction speed 6.3 X
Track quality 100.0 %
Test CRC E7FF6370
Copy CRC E7FF6370
Cannot be verified as accurate (confidence 5) [76D11809], AccurateRip returned [C81E9CFF] (AR v2)
Copy OK
Track 18
Filename C:\_gramophone\18 - Twenty Polish Christmas Carols - Shepherds, can you tell.wav
Pre-gap length 0:00:04.02
Peak level 76.7 %
Extraction speed 6.4 X
Track quality 100.0 %
Test CRC 37D5AD12
Copy CRC 37D5AD12
Accurately ripped (confidence 5) [A77255ED] (AR v1)
Copy OK
Track 19
Filename C:\_gramophone\19 - Twenty Polish Christmas Carols - Infant so tiny.wav
Pre-gap length 0:00:04.06
Peak level 35.5 %
Extraction speed 6.8 X
Track quality 100.0 %
Test CRC CA95E196
Copy CRC CA95E196
Accurately ripped (confidence 5) [457874EB] (AR v1)
Copy OK
Track 20
Filename C:\_gramophone\20 - Twenty Polish Christmas Carols - Polish Christmas Carols - Holy Lady Mary.wav
Pre-gap length 0:00:04.17
Peak level 60.9 %
Extraction speed 7.0 X
Track quality 100.0 %
Test CRC 85C3ED2C
Copy CRC 85C3ED2C
Accurately ripped (confidence 5) [3D5B1B8D] (AR v1)
Copy OK
Track 21
Filename C:\_gramophone\21 - Lacrimosa, for soprano, choir and orchestra.wav
Pre-gap length 0:00:07.80
Peak level 90.1 %
Extraction speed 7.3 X
Track quality 100.0 %
Test CRC F6905992
Copy CRC F6905992
Accurately ripped (confidence 5) [F4629578] (AR v1)
Copy OK
Track 22
Filename C:\_gramophone\22 - Five Songs - The Sea.wav
Pre-gap length 0:00:07.46
Peak level 77.7 %
Extraction speed 7.4 X
Track quality 100.0 %
Test CRC 642D6D62
Copy CRC 642D6D62
Accurately ripped (confidence 5) [36CA8358] (AR v1)
Copy OK
Track 23
Filename C:\_gramophone\23 - Five Songs - The Wind.wav
Peak level 83.5 %
Extraction speed 6.0 X
Track quality 100.0 %
Test CRC 43552BF7
Copy CRC 43552BF7
Accurately ripped (confidence 5) [8D3D0CF8] (AR v1)
Copy OK
Track 24
Filename C:\_gramophone\24 - Five Songs - Winter.wav
Peak level 25.6 %
Extraction speed 7.9 X
Track quality 100.0 %
Test CRC DC86FF05
Copy CRC DC86FF05
Accurately ripped (confidence 5) [D88689B7] (AR v1)
Copy OK
Track 25
Filename C:\_gramophone\25 - Five Songs - Knights.wav
Peak level 38.1 %
Extraction speed 6.1 X
Track quality 100.0 %
Test CRC 7ECB2B3A
Copy CRC 7ECB2B3A
Accurately ripped (confidence 5) [81D7B3E0] (AR v1)
Copy OK
Track 26
Filename C:\_gramophone\26 - Five Songs - Church Bells.wav
Peak level 76.4 %
Extraction speed 7.6 X
Track quality 100.0 %
Test CRC 6B6200C9
Copy CRC 6B6200C9
Accurately ripped (confidence 5) [EC817EE1] (AR v1)
Copy OK
25 track(s) accurately ripped
1 track(s) could not be verified as accurate
Some tracks could not be verified as accurate
No errors occurred
End of status report
==== Log checksum 25F4643E3A7E823AD10602110CE515249CA1005D53FD511B99E741B59FB76CE2 ====

Содержание индексной карты (.CUE)

REM GENRE Classical
REM DATE 2005
REM DISCID 740CBC1A
REM COMMENT "ExactAudioCopy v1.0b3"
PERFORMER "Polish National Radio Symphony Orchestra"
TITLE "Lutoslawski: Twenty Polish Christmas Carols"
FILE "01 - Twenty Polish Christmas Carols - Angels to the shepherds came.wav" WAVE
TRACK 01 AUDIO
TITLE "Twenty Polish Christmas Carols - Angels to the shepherds came"
PERFORMER "Polish National Radio Symphony Orchestra"
INDEX 01 00:00:00
TRACK 02 AUDIO
TITLE "Twenty Polish Christmas Carols - Hey! We rejoice now"
PERFORMER "Polish National Radio Symphony Orchestra"
INDEX 00 01:58:20
FILE "02 - Twenty Polish Christmas Carols - Hey! We rejoice now.wav" WAVE
INDEX 01 00:00:00
TRACK 03 AUDIO
TITLE "Twenty Polish Christmas Carols - When the Christ to us is born"
PERFORMER "Polish National Radio Symphony Orchestra"
INDEX 00 00:43:03
FILE "03 - Twenty Polish Christmas Carols - When the Christ to us is born.wav" WAVE
INDEX 01 00:00:00
TRACK 04 AUDIO
TITLE "Twenty Polish Christmas Carols - Just after midnight"
PERFORMER "Polish National Radio Symphony Orchestra"
INDEX 00 01:58:60
FILE "04 - Twenty Polish Christmas Carols - Just after midnight.wav" WAVE
INDEX 01 00:00:00
TRACK 05 AUDIO
TITLE "Twenty Polish Christmas Carols - God is born"
PERFORMER "Polish National Radio Symphony Orchestra"
INDEX 00 01:24:02
FILE "05 - Twenty Polish Christmas Carols - God is born.wav" WAVE
INDEX 01 00:00:00
TRACK 06 AUDIO
TITLE "Twenty Polish Christmas Carols - Our Lovely Lady"
PERFORMER "Polish National Radio Symphony Orchestra"
INDEX 00 02:14:02
FILE "06 - Twenty Polish Christmas Carols - Our Lovely Lady.wav" WAVE
INDEX 01 00:00:00
TRACK 07 AUDIO
TITLE "Twenty Polish Christmas Carols - Hurrying to Bethlehem"
PERFORMER "Polish National Radio Symphony Orchestra"
INDEX 00 03:18:20
FILE "07 - Twenty Polish Christmas Carols - Hurrying to Bethlehem.wav" WAVE
INDEX 01 00:00:00
TRACK 08 AUDIO
TITLE "Twenty Polish Christmas Carols - In a manger"
PERFORMER "Polish National Radio Symphony Orchestra"
INDEX 00 00:51:02
FILE "08 - Twenty Polish Christmas Carols - In a manger.wav" WAVE
INDEX 01 00:00:00
TRACK 09 AUDIO
TITLE "Twenty Polish Christmas Carols - Jesus there is lying"
PERFORMER "Polish National Radio Symphony Orchestra"
INDEX 00 02:01:47
FILE "09 - Twenty Polish Christmas Carols - Jesus there is lying.wav" WAVE
INDEX 01 00:00:00
TRACK 10 AUDIO
TITLE "Twenty Polish Christmas Carols - We are shepherds"
PERFORMER "Polish National Radio Symphony Orchestra"
INDEX 00 01:26:57
FILE "10 - Twenty Polish Christmas Carols - We are shepherds.wav" WAVE
INDEX 01 00:00:00
TRACK 11 AUDIO
TITLE "Twenty Polish Christmas Carols - Lullaby, Jesus"
PERFORMER "Polish National Radio Symphony Orchestra"
INDEX 00 01:38:25
FILE "11 - Twenty Polish Christmas Carols - Lullaby, Jesus.wav" WAVE
INDEX 01 00:00:00
TRACK 12 AUDIO
TITLE "Twenty Polish Christmas Carols - Hey, on this day"
PERFORMER "Polish National Radio Symphony Orchestra"
INDEX 00 01:54:33
FILE "12 - Twenty Polish Christmas Carols - Hey, on this day.wav" WAVE
INDEX 01 00:00:00
TRACK 13 AUDIO
TITLE "Twenty Polish Christmas Carols - Jesus lovely flower"
PERFORMER "Polish National Radio Symphony Orchestra"
INDEX 00 01:10:40
FILE "13 - Twenty Polish Christmas Carols - Jesus lovely flower.wav" WAVE
INDEX 01 00:00:00
TRACK 14 AUDIO
TITLE "Twenty Polish Christmas Carols - Hey la, Hey la, shepherds there you are"
PERFORMER "Polish National Radio Symphony Orchestra"
INDEX 00 03:42:72
FILE "14 - Twenty Polish Christmas Carols - Hey la, Hey la, shepherds there you are.wav" WAVE
INDEX 01 00:00:00
TRACK 15 AUDIO
TITLE "Twenty Polish Christmas Carols - What to do with this child"
PERFORMER "Polish National Radio Symphony Orchestra"
INDEX 00 02:24:20
FILE "15 - Twenty Polish Christmas Carols - What to do with this child.wav" WAVE
INDEX 01 00:00:00
TRACK 16 AUDIO
TITLE "Twenty Polish Christmas Carols - Hey, hey lovely Lady Mary"
PERFORMER "Polish National Radio Symphony Orchestra"
INDEX 00 01:39:35
FILE "16 - Twenty Polish Christmas Carols - Hey, hey lovely Lady Mary.wav" WAVE
INDEX 01 00:00:00
TRACK 17 AUDIO
TITLE "Twenty Polish Christmas Carols - This is our Lord's birthday"
PERFORMER "Polish National Radio Symphony Orchestra"
INDEX 00 02:20:57
FILE "17 - Twenty Polish Christmas Carols - This is our Lord's birthday.wav" WAVE
INDEX 01 00:00:00
TRACK 18 AUDIO
TITLE "Twenty Polish Christmas Carols - Shepherds, can you tell"
PERFORMER "Polish National Radio Symphony Orchestra"
INDEX 00 01:51:70
FILE "18 - Twenty Polish Christmas Carols - Shepherds, can you tell.wav" WAVE
INDEX 01 00:00:00
TRACK 19 AUDIO
TITLE "Twenty Polish Christmas Carols - Infant so tiny"
PERFORMER "Polish National Radio Symphony Orchestra"
INDEX 00 01:50:73
FILE "19 - Twenty Polish Christmas Carols - Infant so tiny.wav" WAVE
INDEX 01 00:00:00
TRACK 20 AUDIO
TITLE "Twenty Polish Christmas Carols - Polish Christmas Carols - Holy Lady Mary"
PERFORMER "Polish National Radio Symphony Orchestra"
INDEX 00 02:07:62
FILE "20 - Twenty Polish Christmas Carols - Polish Christmas Carols - Holy Lady Mary.wav" WAVE
INDEX 01 00:00:00
TRACK 21 AUDIO
TITLE "Lacrimosa, for soprano, choir and orchestra"
PERFORMER "Polish National Radio Symphony Orchestra"
INDEX 00 02:09:12
FILE "21 - Lacrimosa, for soprano, choir and orchestra.wav" WAVE
INDEX 01 00:00:00
TRACK 22 AUDIO
TITLE "Five Songs - The Sea"
PERFORMER "Polish National Radio Symphony Orchestra"
INDEX 00 03:29:43
FILE "22 - Five Songs - The Sea.wav" WAVE
INDEX 01 00:00:00
FILE "23 - Five Songs - The Wind.wav" WAVE
TRACK 23 AUDIO
TITLE "Five Songs - The Wind"
PERFORMER "Polish National Radio Symphony Orchestra"
INDEX 01 00:00:00
FILE "24 - Five Songs - Winter.wav" WAVE
TRACK 24 AUDIO
TITLE "Five Songs - Winter"
PERFORMER "Polish National Radio Symphony Orchestra"
INDEX 01 00:00:00
FILE "25 - Five Songs - Knights.wav" WAVE
TRACK 25 AUDIO
TITLE "Five Songs - Knights"
PERFORMER "Polish National Radio Symphony Orchestra"
INDEX 01 00:00:00
FILE "26 - Five Songs - Church Bells.wav" WAVE
TRACK 26 AUDIO
TITLE "Five Songs - Church Bells"
PERFORMER "Polish National Radio Symphony Orchestra"
INDEX 01 00:00:00

Отчет CUETools

[CUETools log; Date: 03.03.2014 22:58:07; Version: 2.1.4]
[CTDB TOCID: nN500g6Xc8uj.EXHr7U7ZrXvHfo-] found.
Track | CTDB Status
1 | (2/2) Accurately ripped
2 | (2/2) Accurately ripped
3 | (2/2) Accurately ripped
4 | (2/2) Accurately ripped
5 | (2/2) Accurately ripped
6 | (2/2) Accurately ripped
7 | (2/2) Accurately ripped
8 | (2/2) Accurately ripped
9 | (2/2) Accurately ripped
10 | (2/2) Accurately ripped
11 | (2/2) Accurately ripped
12 | (2/2) Accurately ripped
13 | (2/2) Accurately ripped
14 | (2/2) Accurately ripped
15 | (2/2) Accurately ripped
16 | (2/2) Accurately ripped
17 | (2/2) Differs in 254 samples @01:46:41-01:46:43
18 | (2/2) Accurately ripped
19 | (2/2) Accurately ripped
20 | (2/2) Accurately ripped
21 | (2/2) Accurately ripped
22 | (2/2) Accurately ripped
23 | (2/2) Accurately ripped
24 | (2/2) Accurately ripped
25 | (2/2) Accurately ripped
26 | (2/2) Accurately ripped
[AccurateRip ID: 002ff82a-038f3f49-740cbc1a] found.
Track [ CRC | V2 ] Status
01 [51c92fab|c27de57e] (5+3/8) Accurately ripped
02 [15658b62|4017ef82] (5+3/8) Accurately ripped
03 [1c3edfad|5627abbc] (5+3/8) Accurately ripped
04 [5e6e15aa|63ef1263] (5+3/8) Accurately ripped
05 [5479148a|8b32f046] (5+3/8) Accurately ripped
06 [2da0d988|cf19b4ac] (5+3/8) Accurately ripped
07 [47222d4b|0f3f1a53] (5+3/8) Accurately ripped
08 [c8724c3e|c21054f6] (5+3/8) Accurately ripped
09 [4ba69e20|257ab431] (5+3/8) Accurately ripped
10 [635d0a1b|38ae2888] (5+3/8) Accurately ripped
11 [4629a76a|65fde2a4] (5+3/8) Accurately ripped
12 [f4bf267b|e47784ad] (5+3/8) Accurately ripped
13 [fea3aed4|8264fae3] (5+3/8) Accurately ripped
14 [954544c0|bc5d933e] (5+3/8) Accurately ripped
15 [4cd8ef7a|fa62ee64] (5+3/8) Accurately ripped
16 [3b05cc2e|3aaeb046] (5+3/8) Accurately ripped
17 [50c402bc|76d11809] (0+0/8) No match
18 [a77255ed|1c3e2806] (5+3/8) Accurately ripped
19 [457874eb|d7b9c9a6] (5+3/8) Accurately ripped
20 [3d5b1b8d|8a1fd7e3] (5+3/8) Accurately ripped
21 [f4629578|c2537969] (5+3/8) Accurately ripped
22 [36ca8358|8fc3b091] (5+3/8) Accurately ripped
23 [8d3d0cf8|649c835f] (5+3/8) Accurately ripped
24 [d88689b7|d0fb392b] (5+3/8) Accurately ripped
25 [81d7b3e0|3fe5675d] (5+3/8) Accurately ripped
26 [ec817ee1|ce65458b] (5+3/8) Accurately ripped
Track Peak [ CRC32 ] [W/O NULL] [ LOG ]
-- 90,6 [9D84FC85] [3BB517C9]
01 78,0 [E9DC17FF] [BE1E5CFE] CRC32
02 86,3 [B7129607] [F151215C] CRC32
03 75,1 [A810E1C9] [FF1D676F] CRC32
04 72,6 [A0147DB5] [7E8702BB] CRC32
05 59,9 [EE633622] [4AC882A1] CRC32
06 52,0 [05507F44] [A50BFC3E] CRC32
07 74,2 [E30AF908] [C79E0813] CRC32
08 78,3 [BEE98FCA] [BB44D571] CRC32
09 43,9 [C9175F97] [225AA78C] CRC32
10 90,6 [D428BD05] [61597AE4] CRC32
11 27,5 [EC27EF0E] [940B410C] CRC32
12 85,7 [4F353CB3] [B54475C5] CRC32
13 44,1 [EF9FAC9F] [479227CD] CRC32
14 83,1 [7C2A7EA0] [3BCC51D7] CRC32
15 59,6 [4933432C] [4FACD4CB] CRC32
16 73,2 [4C9D5DBC] [0032A219] CRC32
17 70,9 [E7FF6370] [7B047E36] CRC32
18 76,7 [37D5AD12] [152C5D10] CRC32
19 35,5 [CA95E196] [5414EBDE] CRC32
20 60,9 [85C3ED2C] [BDC6F34B] CRC32
21 90,1 [F6905992] [7AF41340] CRC32
22 77,7 [642D6D62] [3515F951] CRC32
23 83,5 [43552BF7] [97B5B45B] CRC32
24 25,6 [DC86FF05] [CA044A29] CRC32
25 38,1 [7ECB2B3A] [9F2460C0] CRC32
26 76,4 [6B6200C9] [2DCC66D8] CRC32

Об альбоме (сборнике)

If one takes 1954, the year that Witold Lutos1awski completed his Concerto for Orchestra [Naxos 8.553779] and began work on his Musique funиbre [8.553202], as the mid-point in his composing, then the vocal works which follow amount to just four major pieces: from the 1960s the Trois poиmes d'Henri Michaux [8.553779] and the song-cycle Paroles tissees [8.553423]; from the 1970s the 'scena' Les espaces du sommeil [8.553423]; and from the 1980s the song-cycle Chantefleurs et Chantefables [8.554283]. Before 1954, however, vocal music comprises a large part of what Lutos1awski wrote; the greater part, indeed, during the decade after 1945, when a rapid implementing of Socialist Realist cultural policies by the Polish authorities made it hard for the composer to pursue the line of development evinced in his earlier orchestral and chamber works.
Of the dozen or so vocal collections to emerge at this time, by far the most substantial and, from a latterday perspective, surely the most attractive is the Twenty Polish Carols that Lutos1awski assembled in 1946. This was originally arranged for solo voice and piano, and given its partial premiиre by the soprano Aniela Szleminska and pianist Jan Hoffman in Krakow during January 1947. The composer returned to the carols almost four decades later, transcribing seventeen of them for soprano, female choir and chamber orchestra for performance in London by Marie Slorach with the London Sinfonietta and Chorus on 15th December 1985.
The remaining carols were added some four years later, and the complete sequence heard in Edinburgh, with Susan Hamilton, together with the Scottish Philharmonic Singers and Scottish Chamber Orchestra, on 14th December 1990. On that occasion the carols were performed in an English translation by the musicologist and Lutos1awski authority Charles Bodman-Rae, but the present recording uses the Polish texts originally selected by the composer.
The texts and melodies of the Twenty Polish Carols were compiled from three collections of Spiewnik koscielny published by Father Michal Mioduszewski in 1838, 1842 and 1853, as well as his Pastoralki i koledy z melodyjami of 1843 and Oskar Kolberg's Lubelskie of 1883 and Leczyckie of 1889 (all six volumes being originally published in Krakow). The carols can be performed singly, as a selection, or as a complete entity, in which case they comprise a musical sequence as substantial as it is varied.
The sequence begins with Angels to the shepherds came, in a simple yet eloquent setting for choir. There follows the brief Hey! We rejoice now, with its lively evocation of bells, then soprano and choir alternate in the gentle setting of When the Christ to us is born. The lightly tripping rhythm of Just after midnight is typical of Lutoslawski's folk-inspired music of this period, as is the piquant modal harmony of God is born, once again with an effective contrast between choral and solo entries. The pensive rhythm of Our Lovely Lady is duly sustained in a mood of solemn contemplation, unlike the appropriately fleet Hurrying to Bethlehem. The undulating motion of In a manger helps to make this one of the most attractive of all the carols, and complements the ruminative calm of Jesus there is lying, before the more incisive atmosphere of We are shepherds marks the cycle's mid-point.
Lullaby, Jesus is most notable for the delicacy of its harp writing, and Hey, on this day for its bustling string accompaniment, while piano and xylophone, heard against ethereal string harmonies, enhance the discreetly sensuous mood of Jesus lovely flower, the most extended carol of the cycle. There is a certain mischievous edge to the setting of Hey la, Hey la, shepherds there you are, which follows, and a bittersweet feel to What to do with this child? that is enhanced by plaintive bassoon writing. The minor-mode treatment of Hey, hey lovely Lady Mary gives the music a surprisingly doleful quality, though the mood brightens appreciably for the lively setting of This is our Lord's birthday, with its chiming percussion. There is an appropriately questioning quality running though Shepherds, can you tell?, and a mood of rapt eloquence duly characterizes the music of Infant, so tiny. The sequence then comes to a gentle though not necessarily serene conclusion with Holy Lady Mary, its expressive ambiguity perhaps suggested by the words which evoke one who "wondered through the world wide".
The Lacrimosa for soprano, (optional) mixed chorus and orchestra, is one of two settings from the Requiem sequence that Lutos1awski composed in 1937 (the other, Requiem aeternam, was destroyed during the 1944 Warsaw Uprising) and submitted towards the Composition Diploma he received that year. First performed in Warsaw in 1938, it is almost his earliest surviving piece, preceded only by the 1934 Piano Sonata, and was revived by the composer at several of the concerts that he conducted later in his career.
Lacrimosa opens with solo soprano sounding plaintive over strings and woodwind, the music reaching a brief climax before soloist and chorus take the piece to its passionate if short-lived culmination. The orchestra continues alone in a tender recall of the opening melody, before the final vocal cadence.
The Five Songs of 1957, setting texts from Rymy Dzieciece (Children's Rhymes) by the Lithuanian-born poet Kazimiera Illakowicz (1892-1983), exhibit aspects of the more radical idiom Lutos1awski had begun to develop during the cultural 'thaw' that spread across Eastern Europe in the wake of Stalin's death. First given with piano accompaniment by Krystyna Szostek- Radkowa in Katowice on 25th November 1959, they had already been arranged for 'thirty solo instruments', and were first heard thus in Katowice on 12th February 1960. Pronunciation difficulty has limited the extent of their performance outside Poland; something that Lutos1awski was to counter by turning to Frenchlanguage writers for his subsequent vocal works.
The Sea unfolds against a delicate, impressionistic backdrop of rippling harp and piano with divided strings, the texture gradually fanning out in harmonic density but remaining subdued in texture and dynamics.
Contrast comes abruptly in the setting of The Wind, its rhetorical vocal line intensified by the counterpoint of string clusters and gamboling piano chords which fragments towards the close. String harmonics provide an ethereal ambience for the depiction of inanimate nature in Winter, the still centrepiece of the cycle, before striding piano figuration and percussive splashes, latterly tailing off into a musing uncertainty, are brought to bear on Knights. For the final song, Church Bells, a distanced yet insistent chiming pattern in upper strings is slowly intensified by the entry of piano and gongs.
These latter are allowed to resonate after the soloist has ceased, so bringing this distinctive and discreetly cohesive group of songs to a thoughtful, even ominous close.
-- Richard Whitehouse
[teatrix.ru].t18211.torrent 
Торрент: Зарегистрирован [ 2016-03-17 00:41 ] · 192D4828635FDABF80D28F819FBC9B02E126AF61

Скачать .torrent

Скачать

19 KB

Статус: проверено
Скачан: 0 раз
Размер: 202 MB
terms.php



Быстрый ответ

Имя:

      
Для отправки сообщений необходимо включить JavaScript
Показать сообщения:    

Текущее время: 08-Дек 19:04

Часовой пояс: UTC + 3


Вы можете начинать темы
Вы можете отвечать на сообщения
Вы не можете редактировать свои сообщения
Вы не можете удалять свои сообщения
Вы не можете голосовать в опросах
Вы не можете прикреплять файлы к сообщениям
Вы можете скачивать файлы