(Classical) Francis Poulenc – Gloria, Stabat Mater (Chœurs de Radio France, Tranchant, Jouineau; Barbara Hendricks; Orchestre National de France, Pretre) - 2006, WavPack (iso.wv) lossless


Статистика раздачи [Обновить пиров]
Размер:  246 MB   |    Зарегистрирован:  8 месяцев 22 дня   |    Скачан:  0 раз

Полного источника не было: Никогда

 
   
 
 
 

[Цитировать]

Francis PoulencGloria, Stabat Mater (Chœurs de Radio France, Tranchant, Jouineau; Barbara Hendricks; Orchestre National de France, Pretre)Francis Poulenc (1899-1963) Жанр: Classical
Страна-производитель диска: E.U.
Год издания диска: 2006
Издатель (лейбл): EMI Classics
Номер по каталогу: 3 55688 2
Дата записи: X.1988, *3-5.IX.1984, Salle Wagram, Paris
Аудиокодек: WavPack
Тип рипа: iso.wv
Битрейт аудио: lossless
Продолжительность: 0:58:59
Источник: NetLab, Shatterhand
Наличие сканов в содержимом раздачи: да
Треклист:
Gloria (26:51)
01. I. Gloria in excelsis Deo (2:38)
02. II. Laudamus te (2:59)
03. III. Domine Deus (5:34)
04. IV. Domine Fili unigenite (1:25)
05. V. Domine Deus, Agnus Dei (7:24)
06. VI. Qui sedes ad dexteram Patris (6:51)
Stabat Mater* (32:08)
07. I. Stabat Mater dolorosa (4:06)
08. II. Cujus animam gementem (1:00)
09. III. О quam tristis (2:39)
10. IV. Quae moerebat (1:39)
11. V. Quis est homo (1:27)
12. VI. Vidit suum (3:43)
13. VII. Eja Mater (1:11)
14. VIII. Fac ut ardeat (2:21)
15. IX. Sancta Mater (3:12)
16. X. Fac ut portem (4:15)
17. XI. Inflammatus et accensus (2:05)
18. XII. Quando corpus (4:30)
Исполнители:
Barbara Hendricks soprano
Chœurs de Radio France
Michel Tranchant, *Jacques Jouineau chorus masters
Orchestre National de France
conducted by Georges Prêtre

Перечень файлов (содержимое) контейнера в текстовом виде.

1. Содержимое CUE-файла.
2. Отчёт ЕАС.
3. Аудиофайл (.wv)
4. Сканы: буклет, диск, (полные) JPEG;
5. тех. данные
6. Сканы front, CD, Back формат jpeg

Лог создания рипа

Exact Audio Copy V1.0 beta 3 from 29. August 2011
EAC extraction logfile from 17. November 2013, 16:17
Barbara Hendricks. Georges Pretre - Orchestre National de France / Poulenc - Gloria, Stabat Mater
Used drive : TSSTcorpCDDVDW SH-S223F Adapter: 0 ID: 1
Read mode : Secure
Utilize accurate stream : Yes
Defeat audio cache : Yes
Make use of C2 pointers : No
Read offset correction : 6
Overread into Lead-In and Lead-Out : No
Fill up missing offset samples with silence : Yes
Delete leading and trailing silent blocks : No
Null samples used in CRC calculations : Yes
Used interface : Native Win32 interface for Win NT & 2000
Used output format : User Defined Encoder
Selected bitrate : 1024 kBit/s
Quality : High
Add ID3 tag : No
Command line compressor : C:\Program Files\Exact Audio Copy\wavpack.exe
Additional command line options : -hm %source% %dest%
TOC of the extracted CD
Track | Start | Length | Start sector | End sector
---------------------------------------------------------
1 | 0:00.33 | 2:39.05 | 33 | 11962
2 | 2:39.38 | 2:58.67 | 11963 | 25379
3 | 5:38.30 | 5:34.50 | 25380 | 50479
4 | 11:13.05 | 1:25.08 | 50480 | 56862
5 | 12:38.13 | 7:24.07 | 56863 | 90169
6 | 20:02.20 | 7:02.58 | 90170 | 121877
7 | 27:05.03 | 4:06.60 | 121878 | 140387
8 | 31:11.63 | 1:00.00 | 140388 | 144887
9 | 32:11.63 | 2:39.07 | 144888 | 156819
10 | 34:50.70 | 1:39.18 | 156820 | 164262
11 | 36:30.13 | 1:27.22 | 164263 | 170809
12 | 37:57.35 | 3:46.03 | 170810 | 187762
13 | 41:43.38 | 1:10.72 | 187763 | 193084
14 | 42:54.35 | 2:21.25 | 193085 | 203684
15 | 45:15.60 | 3:13.00 | 203685 | 218159
16 | 48:28.60 | 4:15.35 | 218160 | 237319
17 | 52:44.20 | 2:05.43 | 237320 | 246737
18 | 54:49.63 | 4:30.27 | 246738 | 267014
Range status and errors
Selected range
Filename D:\Iso\Barbara Hendricks. Georges Pretre - Orchestre National de France - Poulenc - Gloria, Stabat Mater\Barbara Hendricks. Georges Pretre - Orchestre National de France - Poulenc - Gloria, Stabat Mater.wav
Peak level 100.0 %
Extraction speed 5.1 X
Range quality 100.0 %
Test CRC D7B5B3EE
Copy CRC D7B5B3EE
Copy OK
No errors occurred
AccurateRip summary
Track 1 accurately ripped (confidence 2) [6DBD5374] (AR v2)
Track 2 accurately ripped (confidence 2) [868AC482] (AR v2)
Track 3 accurately ripped (confidence 2) [E03B2018] (AR v2)
Track 4 accurately ripped (confidence 2) [A684B9E4] (AR v2)
Track 5 accurately ripped (confidence 2) [16CDC6FA] (AR v2)
Track 6 accurately ripped (confidence 2) [73C8F2CF] (AR v2)
Track 7 accurately ripped (confidence 2) [E6DE2033] (AR v2)
Track 8 accurately ripped (confidence 2) [B53E8851] (AR v2)
Track 9 accurately ripped (confidence 2) [3513BECD] (AR v2)
Track 10 accurately ripped (confidence 2) [3845A158] (AR v2)
Track 11 accurately ripped (confidence 2) [74C03A50] (AR v2)
Track 12 accurately ripped (confidence 2) [0D97FC8B] (AR v2)
Track 13 accurately ripped (confidence 2) [89CC5364] (AR v2)
Track 14 accurately ripped (confidence 2) [FF211149] (AR v2)
Track 15 accurately ripped (confidence 2) [55A31990] (AR v2)
Track 16 accurately ripped (confidence 2) [93FAFF5E] (AR v2)
Track 17 accurately ripped (confidence 2) [DBD951C5] (AR v2)
Track 18 accurately ripped (confidence 2) [52275DBC] (AR v2)
All tracks accurately ripped
End of status report
==== Log checksum 8B2729914EE82B8227524CACFC1063D185C6FF50B6E07AFD257947B5190F933E ====

Содержание индексной карты (.CUE)

REM GENRE "Classical"
REM DATE 2006
REM DISCID F50DE812
REM COMMENT "ExactAudioCopy v1.0b3"
CATALOG 0094635568820
PERFORMER "Barbara Hendricks, Georges Pretre, Orchestre National de France"
TITLE "Poulenc - Gloria, Stabat Mater"
FILE "Barbara Hendricks, Georges Pretre, Orchestre National de France - 2006 - Poulenc - Gloria, Stabat Mater (EMI CLASSICS 0946 3 55688 2 0) [NL+].wv" WAVE
TRACK 01 AUDIO
TITLE "Gloria - Gloria In Excelsis Deo"
PERFORMER "Barbara Hendricks, Georges Pretre, Orchestre National de France"
INDEX 00 00:00:00
INDEX 01 00:00:33
TRACK 02 AUDIO
TITLE "Gloria - Laudate Te"
PERFORMER "Barbara Hendricks, Georges Pretre, Orchestre National de France"
INDEX 00 02:39:35
INDEX 01 02:39:38
TRACK 03 AUDIO
TITLE "Gloria - Domine Deus"
PERFORMER "Barbara Hendricks, Georges Pretre, Orchestre National de France"
INDEX 00 05:38:28
INDEX 01 05:38:30
TRACK 04 AUDIO
TITLE "Gloria - Domine Fili Unigente"
PERFORMER "Barbara Hendricks, Georges Pretre, Orchestre National de France"
INDEX 00 11:13:03
INDEX 01 11:13:05
TRACK 05 AUDIO
TITLE "Gloria - Domine Deus, Agnus Dei"
PERFORMER "Barbara Hendricks, Georges Pretre, Orchestre National de France"
INDEX 00 12:38:10
INDEX 01 12:38:13
TRACK 06 AUDIO
TITLE "Gloria - Qui Sedes Ad Dexteram Patris"
PERFORMER "Barbara Hendricks, Georges Pretre, Orchestre National de France"
INDEX 00 20:02:18
INDEX 01 20:02:20
TRACK 07 AUDIO
TITLE "Stabat Mater - Stabat Mater Dolorosa"
PERFORMER "Barbara Hendricks, Georges Pretre, Orchestre National de France"
INDEX 00 26:53:20
INDEX 01 27:05:03
TRACK 08 AUDIO
TITLE "Stabat Mater - Cujus Animam Gementem"
PERFORMER "Barbara Hendricks, Georges Pretre, Orchestre National de France"
INDEX 00 31:11:60
INDEX 01 31:11:63
TRACK 09 AUDIO
TITLE "Stabat Mater - O Quam Tristis"
PERFORMER "Barbara Hendricks, Georges Pretre, Orchestre National de France"
INDEX 00 32:11:60
INDEX 01 32:11:63
TRACK 10 AUDIO
TITLE "Stabat Mater - Quae Moerebat"
PERFORMER "Barbara Hendricks, Georges Pretre, Orchestre National de France"
INDEX 00 34:50:68
INDEX 01 34:50:70
TRACK 11 AUDIO
TITLE "Stabat Mater - Quis Est Homo"
PERFORMER "Barbara Hendricks, Georges Pretre, Orchestre National de France"
INDEX 00 36:30:10
INDEX 01 36:30:13
TRACK 12 AUDIO
TITLE "Stabat Mater - Vidit Suum"
PERFORMER "Barbara Hendricks, Georges Pretre, Orchestre National de France"
INDEX 00 37:57:33
INDEX 01 37:57:35
TRACK 13 AUDIO
TITLE "Stabat Mater - Eja Mater"
PERFORMER "Barbara Hendricks. Georges Pretre - Orchestre National de France"
INDEX 00 41:40:45
INDEX 01 41:43:38
TRACK 14 AUDIO
TITLE "Stabat Mater - Fac Ut Ardeat"
PERFORMER "Barbara Hendricks, Georges Pretre, Orchestre National de France"
INDEX 00 42:54:33
INDEX 01 42:54:35
TRACK 15 AUDIO
TITLE "Stabat Mater - Sancta Mater"
PERFORMER "Barbara Hendricks, Georges Pretre, Orchestre National de France"
INDEX 00 45:15:58
INDEX 01 45:15:60
TRACK 16 AUDIO
TITLE "Stabat Mater - Fac Ut Portem"
PERFORMER "Barbara Hendricks, Georges Pretre, Orchestre National de France"
INDEX 00 48:28:43
INDEX 01 48:28:60
TRACK 17 AUDIO
TITLE "Stabat Mater - Inflammatus Et Accensus"
PERFORMER "Barbara Hendricks, Georges Pretre, Orchestre National de France"
INDEX 00 52:44:18
INDEX 01 52:44:20
TRACK 18 AUDIO
TITLE "Stabat Mater - Quando Corpus"
PERFORMER "Barbara Hendricks, Georges Pretre, Orchestre National de France"
INDEX 00 54:49:60
INDEX 01 54:49:63

Лог проверки качества


Скриншот спектра частот

[teatrix.ru].t18220.torrent 
Торрент: Зарегистрирован [ 2016-03-17 00:41 ] · AB62A704E05C69A2B0317D6CCCBE4B828B83BD33

Скачать .torrent

Скачать

20 KB

Статус: проверено
Скачан: 0 раз
Размер: 246 MB
terms.php



Быстрый ответ

Имя:

      
Для отправки сообщений необходимо включить JavaScript
Показать сообщения:    

Текущее время: 08-Дек 09:01

Часовой пояс: UTC + 3


Вы можете начинать темы
Вы можете отвечать на сообщения
Вы не можете редактировать свои сообщения
Вы не можете удалять свои сообщения
Вы не можете голосовать в опросах
Вы не можете прикреплять файлы к сообщениям
Вы можете скачивать файлы