Сати. Нескучная классика... (28 выпусков, обновлён 01 декабря 2014) [2014, ток-шоу, DVB, SATRemux]


Статистика раздачи [Обновить пиров]
Размер:  23.61 GB   |    Зарегистрирован:  8 месяцев 18 дней   |    Скачан:  0 раз

Полного источника не было: Никогда

 
   
 
 
 

[Цитировать]

Сати. Нескучная классика...
Год выпуска: 2014
Страна: Россия
Жанр: ток-шоу
Продолжительность: 28 х ~ 39 мин.
Ведущая: Сати Спивакова
Описание: В гостях у Сати Спиваковой побывают те, кто владеет музыкальными тайнами – знаменитые пианисты и скрипачи, оперные примадонны, премьеры балетных трупп и те, кто еще только готовится приобщиться к тайнам классики – молодые виртуозы, студенты творческих вузов.
Доп. информация: Передачи с 13.01.14
Огромное спасибо spasatelee за выпуски!
Предыдущие передачи здесь:
http://teatrix.ru/viewtopic.php?t=4242241
Новые выпуски 2015 года здесь:
http://teatrix.ru/viewtopic.php?t=4951093
Качество: DVB, SATRemux
Формат: MPG
Видео кодек: MPEG2
Видео: MPEG2 Video 704x576 (4:3) 25fps 2500kbps
Аудио: MPEG Audio 48000Hz stereo 192kbps

Список передач

2014-01-13 Евгений Нестеренко и Дмитрий Вдовин
2014-01-20 Феликс Коробов и Вадим Журавлев
2014-01-27 Альбина Шагимуратова, Василий Ладюк, Георгий Исаакян
2014-02-03 Александр Романовский и Дмитрий Вдовин
2014-02-10 Людмила Семеняка и Борис Акимов
2014-02-17 Галина Писаренко
2014-02-24 Семен Скигин и Елена Поповская
2014-03-03 Николай Луганский и Дина Кирнарская
2014-03-24 Вспоминая Кирилла Кондрашина
2014-03-31 Владимир Юровский
2014-04-07 Наталья Басовская и Дина Кирнарская
2014-04-14 Алла Демидова
2014-04-21 Владимир Сорокин и Леонид Десятников
2014-05-05 Дмитрий Корчак и Вадим Журавлев
2014-05-12 Туган Сохиев
2014-05-19 Наталья Басовская и Дина Кирнарская (второй раз)
2014-05-26 Ильдар Абдразаков
2014-09-01 Екатерина Мечетина и Артем Варгафтик
2014-09-08 Александр Дмитриев и Андрей Золотов
2014-09-22 Роман Виктюк, Евгения Образцова и Альбина Шагимуратова
2014-10-06 Александр Титель и Александр Сладковский
2014-10-13 Михаил Швыдкой и Дмитрий Богачев
2014-10-27 Ирина Шнитке
2014-11-10 Михаил Воскресенский и Александр Гиндин
2014-11-17 Наталья Басовская и Вадим Журавлев
2014-11-24 Дмитрий Башкиров и Денис Мацуев
2014-12-01 Александр Рудин и Артем Варгафтик

Внимание! Раздача ведётся путём пополнения архива телепередач

Внимание! Раздача ведётся путём пополнения архива телепередач; при каждом добавлении создаётся новый торрент. Чтобы начать докачку новой передачи цикла пользователям необходимо сделать следующее:
(1) остановить скачивание,
(2) удалить старый торрент у себя из клиента (старые передачи удалять не надо),
(3) скачать новый торрент и запустить его у себя в клиенте вместо старого, при этом указать клиенту путь в старую папку куда и должно происходить скачивание новых программ.
Ваш клиент при этом должен произвести хеширование (проверку) старой папки (если не производит сам - помогите ему сделать это), и будет докачивать только те передачи, которых у вас ещё нет. Старые передачи цикла при этом не удаляются, а продолжают раздаваться!
Eсли вы уже удалили старые , то предотвратить повторную их закачку можно отжав галочку в соответствующих местах при запуске нового торрента.

MediaInfo

General
Complete name : D:\Download\Torrents\Сати. Нескучная классика 2014\2014-01-13 Евгений Нестеренко и Дмитрий Вдовин.mpg
Format : MPEG-PS
File size : 1.20 GiB
Duration : 39mn 0s
Overall bit rate mode : Variable
Overall bit rate : 4 417 Kbps
Writing library : (c) 1998-2009 Womble Multimedia, Inc. / MPEG Video Wizard (03/2009) / Jun 24 2009
Video
ID : 224 (0xE0)
Format : MPEG Video
Format version : Version 2
Format profile : Main@Main
Format settings, BVOP : Yes
Format settings, Matrix : Custom
Format settings, GOP : Variable
Duration : 38mn 59s
Bit rate mode : Variable
Bit rate : 4 137 Kbps
Maximum bit rate : 15.0 Mbps
Width : 720 pixels
Height : 576 pixels
Display aspect ratio : 4:3
Frame rate : 25.000 fps
Standard : PAL
Color space : YUV
Chroma subsampling : 4:2:0
Bit depth : 8 bits
Scan type : Interlaced
Scan order : Top Field First
Compression mode : Lossy
Bits/(Pixel*Frame) : 0.399
Time code of first frame : 00:00:00:00
Time code source : Group of pictures header
Stream size : 1.13 GiB (94%)
Source encoded stream size : (c) 1998-2009 Womble Multimedia, Inc. / MPEG Video Wizard (03/2009) / Jun 24 2009
Writing library : (c) 1998-2009 Womble Multimedia, Inc. / MPEG Video Wizard (03/2009) / Jun 24 2009
Audio
ID : 192 (0xC0)
Format : MPEG Audio
Format version : Version 1
Format profile : Layer 2
Duration : 39mn 0s
Bit rate mode : Constant
Bit rate : 192 Kbps
Channel(s) : 2 channels
Sampling rate : 48.0 KHz
Compression mode : Lossy
Delay relative to video : -40ms
Stream size : 53.6 MiB (4%)

Скриншоты

[teatrix.ru].t18221.torrent 
Торрент: Зарегистрирован [ 2016-03-17 00:41 ] · 1843BB5E2778AC70B7CC0DA6B9338C9FA0601D1D

Скачать .torrent

Скачать

122 KB

Статус: проверено
Скачан: 0 раз
Размер: 23.61 GB
terms.php



Быстрый ответ

Имя:

      
Для отправки сообщений необходимо включить JavaScript
Показать сообщения:    

Текущее время: 04-Дек 02:52

Часовой пояс: UTC + 3


Вы можете начинать темы
Вы можете отвечать на сообщения
Вы не можете редактировать свои сообщения
Вы не можете удалять свои сообщения
Вы не можете голосовать в опросах
Вы не можете прикреплять файлы к сообщениям
Вы можете скачивать файлы