(Classical) Rodrigo - Concierto de Aranjuez, Serenata al Alba del Dia; Ravel - Pavane pour une infante defunte; Castelnuovo-Tedesco - Sonatina Op. 205; Piazzolla - Histoire du Tango (Zsapka, Zsapkova, Warchal) - 2007, FLAC (tracks+.cue) lossless


Статистика раздачи [Обновить пиров]
Размер:  267 MB   |    Зарегистрирован:  8 месяцев 24 дня   |    Скачан:  0 раз

Полного источника не было: Никогда

 
   
 
 
 

[Цитировать]

Magic Classics - Rodrigo, Ravel, Castelnuovo-Tedesco, Piazolla
Жанр: Classical, Concerto, Chamber, Guitar, Flute
Страна-производитель диска: Russia
Год издания диска: 2007
Издатель (лейбл): Tорговая Фирма "Никитин"
Номер по каталогу: ТФН-CD43/07
Аудиокодек: FLAC
Тип рипа: tracks+.cue
Битрейт аудио: lossless
Продолжительность: 01:07:32
Источник: собственный рип
Наличие сканов в содержимом раздачи: да
Треклист:
Joaquin Rodrigo: Concierto de Aranjuez
1. Allegro Con Spirito
2. Adagio
3. Allegro Gentile
Joaquin Rodrigo: Serenata Al Alba Del Dia
4. Andante Moderato
5. Allegro
6. Maurice Ravel: Pavanne Pour Im Infante Dcfunte
Mario Castelnuovo-Tedesco: Sonatina Op.205
7. Allegretio Grazioso
8. Tempo Di Siciliana
9. Scherzo Rondo
Astor Piazolla: Histoire Du Tango
10. Bordel 1900
11. Cafe l930
12. Night-Club 1960
13. Concert D'aujourd'hui

Исполнители:
Jozef Zsapka - guitar
Dagmar Zsapkova - flute
Slovak Philharmonic Chamber Orchestra
Bohdan Warchal - conductor

Лог создания рипа

Exact Audio Copy V1.0 beta 3 from 29. August 2011
EAC extraction logfile from 29. January 2014, 11:10
Various / Magic Classics: Rodrigo, Ravel, Castelnuovo-Tedesco, Piazolla
Used drive : ASUS DRW-24B3ST Adapter: 2 ID: 1
Read mode : Secure
Utilize accurate stream : Yes
Defeat audio cache : Yes
Make use of C2 pointers : No
Read offset correction : 6
Overread into Lead-In and Lead-Out : No
Fill up missing offset samples with silence : Yes
Delete leading and trailing silent blocks : No
Null samples used in CRC calculations : Yes
Used interface : Native Win32 interface for Win NT & 2000
Gap handling : Appended to previous track
Used output format : User Defined Encoder
Selected bitrate : 128 kBit/s
Quality : High
Add ID3 tag : No
Command line compressor : J:\Programs\Exact Audio Copy\Flac\flac.exe
Additional command line options : -V -8 -T "Genre=%genre%" -T "Artist=%artist%" -T "Title=%title%" -T "Album=%albumtitle%" -T "Date=%year%" -T "Tracknumber=%tracknr%" -T "Comment=%comment%" %source%
TOC of the extracted CD
Track | Start | Length | Start sector | End sector
---------------------------------------------------------
1 | 0:00.00 | 5:51.08 | 0 | 26332
2 | 5:51.08 | 12:38.05 | 26333 | 83187
3 | 18:29.13 | 5:32.52 | 83188 | 108139
4 | 24:01.65 | 2:28.60 | 108140 | 119299
5 | 26:30.50 | 1:49.53 | 119300 | 127527
6 | 28:20.28 | 6:32.12 | 127528 | 156939
7 | 34:52.40 | 3:48.00 | 156940 | 174039
8 | 38:40.40 | 4:34.20 | 174040 | 194609
9 | 43:14.60 | 4:19.38 | 194610 | 214072
10 | 47:34.23 | 3:46.60 | 214073 | 231082
11 | 51:21.08 | 7:47.70 | 231083 | 266177
12 | 59:09.03 | 5:24.70 | 266178 | 290547
13 | 64:33.73 | 2:56.45 | 290548 | 303792
Track 1
Filename J:\Torrent\Magic Classics - Rodrigo, Ravel, Castelnuovo-Tedesco, Piazolla (2007)\01. Rodrigo - Concerto de Aranjuez, Allegro con spirito.wav
Pre-gap length 0:00:02.00
Peak level 77.3 %
Extraction speed 4.1 X
Track quality 100.0 %
Test CRC 7793F6CC
Copy CRC 7793F6CC
Track not present in AccurateRip database
Copy OK
Track 2
Filename J:\Torrent\Magic Classics - Rodrigo, Ravel, Castelnuovo-Tedesco, Piazolla (2007)\02. Rodrigo - Concerto de Aranjuez, Adagio.wav
Pre-gap length 0:00:02.00
Peak level 93.6 %
Extraction speed 5.2 X
Track quality 100.0 %
Test CRC 10C4341F
Copy CRC 10C4341F
Track not present in AccurateRip database
Copy OK
Track 3
Filename J:\Torrent\Magic Classics - Rodrigo, Ravel, Castelnuovo-Tedesco, Piazolla (2007)\03. Rodrigo - Concerto de Aranjuez, Allegro gentile.wav
Pre-gap length 0:00:01.74
Peak level 81.3 %
Extraction speed 5.6 X
Track quality 100.0 %
Test CRC B88D9FCC
Copy CRC B88D9FCC
Track not present in AccurateRip database
Copy OK
Track 4
Filename J:\Torrent\Magic Classics - Rodrigo, Ravel, Castelnuovo-Tedesco, Piazolla (2007)\04. Rodrigo - Serenata al Alba del Dia, Andante moderato.wav
Pre-gap length 0:00:02.00
Peak level 71.4 %
Extraction speed 5.2 X
Track quality 100.0 %
Test CRC D2D0020B
Copy CRC D2D0020B
Track not present in AccurateRip database
Copy OK
Track 5
Filename J:\Torrent\Magic Classics - Rodrigo, Ravel, Castelnuovo-Tedesco, Piazolla (2007)\05. Rodrigo - Serenata al Alba del Dia, Allegro.wav
Pre-gap length 0:00:02.00
Peak level 69.4 %
Extraction speed 5.0 X
Track quality 100.0 %
Test CRC F0F2C417
Copy CRC F0F2C417
Track not present in AccurateRip database
Copy OK
Track 6
Filename J:\Torrent\Magic Classics - Rodrigo, Ravel, Castelnuovo-Tedesco, Piazolla (2007)\06. Ravel - Pavane pour une infante defunte.wav
Pre-gap length 0:00:02.00
Peak level 53.4 %
Extraction speed 6.4 X
Track quality 100.0 %
Test CRC 9048A864
Copy CRC 9048A864
Track not present in AccurateRip database
Copy OK
Track 7
Filename J:\Torrent\Magic Classics - Rodrigo, Ravel, Castelnuovo-Tedesco, Piazolla (2007)\07. Castelnuovo-Tedesco - Sonatine Op.205, Allegretto grazioso.wav
Pre-gap length 0:00:02.00
Peak level 67.6 %
Extraction speed 6.3 X
Track quality 100.0 %
Test CRC D401FE9C
Copy CRC D401FE9C
Track not present in AccurateRip database
Copy OK
Track 8
Filename J:\Torrent\Magic Classics - Rodrigo, Ravel, Castelnuovo-Tedesco, Piazolla (2007)\08. Castelnuovo-Tedesco - Sonatine Op.205, Tempo di Sciliana.wav
Pre-gap length 0:00:02.00
Peak level 51.5 %
Extraction speed 6.8 X
Track quality 100.0 %
Test CRC 8A050B41
Copy CRC 8A050B41
Track not present in AccurateRip database
Copy OK
Track 9
Filename J:\Torrent\Magic Classics - Rodrigo, Ravel, Castelnuovo-Tedesco, Piazolla (2007)\09. Castelnuovo-Tedesco - Sonatine Op.205, Scherzo Rondo.wav
Pre-gap length 0:00:02.00
Peak level 65.7 %
Extraction speed 6.9 X
Track quality 100.0 %
Test CRC C189530F
Copy CRC C189530F
Track not present in AccurateRip database
Copy OK
Track 10
Filename J:\Torrent\Magic Classics - Rodrigo, Ravel, Castelnuovo-Tedesco, Piazolla (2007)\10. Piazolla - Histoire du Tango, Bordel 1900.wav
Pre-gap length 0:00:02.00
Peak level 93.5 %
Extraction speed 7.0 X
Track quality 100.0 %
Test CRC 1F53016A
Copy CRC 1F53016A
Track not present in AccurateRip database
Copy OK
Track 11
Filename J:\Torrent\Magic Classics - Rodrigo, Ravel, Castelnuovo-Tedesco, Piazolla (2007)\11. Piazolla - Histoire du Tango, Cafe 1930.wav
Pre-gap length 0:00:02.00
Peak level 48.5 %
Extraction speed 7.9 X
Track quality 100.0 %
Test CRC 653CA093
Copy CRC 653CA093
Track not present in AccurateRip database
Copy OK
Track 12
Filename J:\Torrent\Magic Classics - Rodrigo, Ravel, Castelnuovo-Tedesco, Piazolla (2007)\12. Piazolla - Histoire du Tango, Night-Club 1960.wav
Pre-gap length 0:00:02.00
Peak level 70.6 %
Extraction speed 8.0 X
Track quality 100.0 %
Test CRC 7A4ECBC7
Copy CRC 7A4ECBC7
Track not present in AccurateRip database
Copy OK
Track 13
Filename J:\Torrent\Magic Classics - Rodrigo, Ravel, Castelnuovo-Tedesco, Piazolla (2007)\13. Piazolla - Histoire du Tango, Concert d'aujourd'hui.wav
Pre-gap length 0:00:02.00
Peak level 78.7 %
Extraction speed 5.5 X
Track quality 99.9 %
Test CRC 54C5CB0F
Copy CRC 54C5CB0F
Track not present in AccurateRip database
Copy OK
None of the tracks are present in the AccurateRip database
No errors occurred
End of status report
==== Log checksum 92115EEE6BEC977173D53C6207EF1121654DE99605CAC2C994592F8FECB52A56 ====

Содержание индексной карты (.CUE)

REM GENRE Classical
REM DATE 2007
REM DISCID AE0FD20D
REM COMMENT "ExactAudioCopy v1.0b3"
PERFORMER "Various "
TITLE "Magic Classics: Rodrigo, Ravel, Castelnuovo-Tedesco, Piazolla"
FILE "01. Rodrigo - Concerto de Aranjuez, Allegro con spirito.wav" WAVE
TRACK 01 AUDIO
TITLE "Concerto de Aranjuez, Allegro con spirito"
PERFORMER "Rodrigo"
FLAGS DCP
INDEX 01 00:00:00
TRACK 02 AUDIO
TITLE "Concerto de Aranjuez, Adagio"
PERFORMER "Rodrigo"
FLAGS DCP
INDEX 00 05:49:08
FILE "02. Rodrigo - Concerto de Aranjuez, Adagio.wav" WAVE
INDEX 01 00:00:00
TRACK 03 AUDIO
TITLE "Concerto de Aranjuez, Allegro gentile"
PERFORMER "Rodrigo"
FLAGS DCP
INDEX 00 12:36:06
FILE "03. Rodrigo - Concerto de Aranjuez, Allegro gentile.wav" WAVE
INDEX 01 00:00:00
TRACK 04 AUDIO
TITLE "Serenata al Alba del Dia, Andante moderato"
PERFORMER "Rodrigo"
FLAGS DCP
INDEX 00 05:30:52
FILE "04. Rodrigo - Serenata al Alba del Dia, Andante moderato.wav" WAVE
INDEX 01 00:00:00
TRACK 05 AUDIO
TITLE "Serenata al Alba del Dia, Allegro"
PERFORMER "Rodrigo"
FLAGS DCP
INDEX 00 02:26:60
FILE "05. Rodrigo - Serenata al Alba del Dia, Allegro.wav" WAVE
INDEX 01 00:00:00
TRACK 06 AUDIO
TITLE "Pavane pour une infante defunte"
PERFORMER "Ravel"
FLAGS DCP
INDEX 00 01:47:53
FILE "06. Ravel - Pavane pour une infante defunte.wav" WAVE
INDEX 01 00:00:00
TRACK 07 AUDIO
TITLE "Sonatine Op.205, Allegretto grazioso"
PERFORMER "Castelnuovo-Tedesco"
FLAGS DCP
INDEX 00 06:30:12
FILE "07. Castelnuovo-Tedesco - Sonatine Op.205, Allegretto grazioso.wav" WAVE
INDEX 01 00:00:00
TRACK 08 AUDIO
TITLE "Sonatine Op.205, Tempo di Sciliana"
PERFORMER "Castelnuovo-Tedesco"
FLAGS DCP
INDEX 00 03:46:00
FILE "08. Castelnuovo-Tedesco - Sonatine Op.205, Tempo di Sciliana.wav" WAVE
INDEX 01 00:00:00
TRACK 09 AUDIO
TITLE "Sonatine Op.205, Scherzo Rondo"
PERFORMER "Castelnuovo-Tedesco"
FLAGS DCP
INDEX 00 04:32:20
FILE "09. Castelnuovo-Tedesco - Sonatine Op.205, Scherzo Rondo.wav" WAVE
INDEX 01 00:00:00
TRACK 10 AUDIO
TITLE "Histoire du Tango, Bordel 1900"
PERFORMER "Piazolla"
FLAGS DCP
INDEX 00 04:17:38
FILE "10. Piazolla - Histoire du Tango, Bordel 1900.wav" WAVE
INDEX 01 00:00:00
TRACK 11 AUDIO
TITLE "Histoire du Tango, Cafe 1930"
PERFORMER "Piazolla"
FLAGS DCP
INDEX 00 03:44:60
FILE "11. Piazolla - Histoire du Tango, Cafe 1930.wav" WAVE
INDEX 01 00:00:00
TRACK 12 AUDIO
TITLE "Histoire du Tango, Night-Club 1960"
PERFORMER "Piazolla"
FLAGS DCP
INDEX 00 07:45:70
FILE "12. Piazolla - Histoire du Tango, Night-Club 1960.wav" WAVE
INDEX 01 00:00:00
TRACK 13 AUDIO
TITLE "Histoire du Tango, Concert d'aujourd'hui"
PERFORMER "Piazolla"
FLAGS DCP
INDEX 00 05:22:70
FILE "13. Piazolla - Histoire du Tango, Concert d'aujourd'hui.wav" WAVE
INDEX 01 00:00:00

Доп. информация

Slovak-Chamber-Orchestra
[teatrix.ru].t18223.torrent 
Торрент: Зарегистрирован [ 2016-03-17 00:41 ] · B4C939E0FA5F8B3ACCBDACEBD5C5A55C7746C769

Скачать .torrent

Скачать

13 KB

Статус: проверено
Скачан: 0 раз
Размер: 267 MB
terms.php



Быстрый ответ

Имя:

      
Для отправки сообщений необходимо включить JavaScript
Показать сообщения:    

Текущее время: 10-Дек 11:57

Часовой пояс: UTC + 3


Вы можете начинать темы
Вы можете отвечать на сообщения
Вы не можете редактировать свои сообщения
Вы не можете удалять свои сообщения
Вы не можете голосовать в опросах
Вы не можете прикреплять файлы к сообщениям
Вы можете скачивать файлы