(Choral, Symphonic) Johannes Brahms - Choral Works [Ein deutsches Requiem (A German Requiem), Alto Rhapsody, Song of Destiny] and Overtures (Wiener Symphoniker, Wiener Singverein, Crass, Heynis, Lipp, Sawallisch) - 1993, FLAC (image+.cue) lossless


Статистика раздачи [Обновить пиров]
Размер:  675 MB   |    Зарегистрирован:  8 месяцев 17 дней   |    Скачан:  1 раз

Полного источника не было: 1 месяц 9 дней

 
   
 
 
 

[Цитировать]

Johannes Brahms - Choral Works and OverturesWiener Symphoniker | Wiener Singverein | Wolfgang Sawallisch Жанр: Choral, Symphonic
Страна-производитель диска: Germany
Год издания диска: 1993
Издатель (лейбл): Philips Classics
Номер по каталогу: 438 760-2
Дата записи: 1959-1961
Аудиокодек: FLAC
Тип рипа: image+.cue
Битрейт аудио: lossless
Продолжительность: 2:14:69
Источник: собственный рип
Наличие сканов в содержимом раздачи: да
Треклист:
CD 1
Ein deutsches Requiem (A German Requiem), for soprano, baritone, chorus & orchestra, Op. 45
1 Selig sind die da Lied tragen 11:10
2 Denn alles Fleisch es ist wie Gras 14:30
3 Herr, lehre doch mich / Der gerechten Seelen sind in Gottes Hand 9:52
4 Wie lieblich sind deine Wohnungen 4:46
5 Ihr habt nun Traurigkeit 6:42
6 Denn wir haben hier keine bleibende statt / Herr, du bist wurdig 10:27
7 Selig sind die Toten 11:21
CD 2
1 Academic Festival Overture, for orchestra in C minor ("Akademische Festouvertüre"), Op. 80 9:11
2 Tragic Overture, in D minor, Op. 81 12:39
3 Hyperions Schicksalslied (Song of Destiny) for chorus and orchestra, Op. 54 14:47
4 Alto Rhapsody, for alto, male chorus & orchestra, Op. 53 12:44
5 Variations on a Theme of Haydn for orchestra in B flat major (St. Anthony Variations), Op. 56a 17:01
Исполнители:
Wiener Symphoniker
Wiener Singverein der Gesellschaft der Musikfreunde
Wolfgang Sawallisch - conductor
Franz Crass - baritone
Aafje Heynis - alto
Wilma Lipp - soprano

Лог создания рипа

Лог создания рипа CD1

Exact Audio Copy V1.0 beta 3 from 29. August 2011
EAC extraction logfile from 2. March 2014, 19:29
Wolfgang Sawallisch / Choral Works and Overtures CD1
Used drive : TSSTcorp CDDVDW Adapter: 0 ID: 0
Read mode : Secure
Utilize accurate stream : Yes
Defeat audio cache : Yes
Make use of C2 pointers : No
Read offset correction : 6
Overread into Lead-In and Lead-Out : No
Fill up missing offset samples with silence : Yes
Delete leading and trailing silent blocks : No
Null samples used in CRC calculations : Yes
Used interface : Installed external ASPI interface
Used output format : User Defined Encoder
Selected bitrate : 768 kBit/s
Quality : High
Add ID3 tag : No
Command line compressor : C:\Program Files (x86)\Exact Audio Copy\FLAC\FLAC.EXE
Additional command line options : -6 -V -T "ARTIST=%artist%" -T "TITLE=%title%" -T "ALBUM=%albumtitle%" -T "DATE=%year%" -T "TRACKNUMBER=%tracknr%" -T "GENRE=%genre%" -T "COMMENT=%comment%" -T "BAND=%albuminterpret%" -T "ALBUMARTIST=%albuminterpret%" -T "COMPOSER=%composer%" %haslyrics%--tag-from-file=LYRICS="%lyricsfile%"%haslyrics% -T "DISCNUMBER=%cdnumber%" -T "TOTALDISCS=%totalcds%" -T "TOTALTRACKS=%numtracks%" %hascover%--picture="%coverfile%"%hascover% %source% -o %dest%
TOC of the extracted CD
Track | Start | Length | Start sector | End sector
---------------------------------------------------------
1 | 0:00.33 | 11:10.00 | 33 | 50282
2 | 11:10.33 | 14:30.00 | 50283 | 115532
3 | 25:40.33 | 9:52.00 | 115533 | 159932
4 | 35:32.33 | 4:46.00 | 159933 | 181382
5 | 40:18.33 | 6:42.00 | 181383 | 211532
6 | 47:00.33 | 10:27.00 | 211533 | 258557
7 | 57:27.33 | 11:21.00 | 258558 | 309632
Range status and errors
Selected range
Filename C:\RIP\Brahms - Choral Works and Overtures (Sawallisch) CD1.wav
Peak level 100.0 %
Extraction speed 3.3 X
Range quality 99.9 %
Test CRC 33F04A5D
Copy CRC 33F04A5D
Copy OK
No errors occurred
AccurateRip summary
Track 1 accurately ripped (confidence 7) [971B3234] (AR v2)
Track 2 accurately ripped (confidence 7) [4801457D] (AR v2)
Track 3 accurately ripped (confidence 7) [3E195EA2] (AR v2)
Track 4 accurately ripped (confidence 7) [F7BC0D94] (AR v2)
Track 5 accurately ripped (confidence 7) [36F29BB2] (AR v2)
Track 6 accurately ripped (confidence 7) [3C49356C] (AR v2)
Track 7 accurately ripped (confidence 7) [F1823DBB] (AR v2)
All tracks accurately ripped
End of status report
==== Log checksum E5BB7115571AA1AEFD228EBAD0CD8E0F320AC7B88BA15AE8FEC7965B7E5C2516 ====

Лог создания рипа CD2

Exact Audio Copy V1.0 beta 3 from 29. August 2011
EAC extraction logfile from 2. March 2014, 20:22
Wolfgang Sawallisch / Brahms: Choral Works and Overtures [Disc 2]
Used drive : TSSTcorp CDDVDW Adapter: 0 ID: 0
Read mode : Secure
Utilize accurate stream : Yes
Defeat audio cache : Yes
Make use of C2 pointers : No
Read offset correction : 6
Overread into Lead-In and Lead-Out : No
Fill up missing offset samples with silence : Yes
Delete leading and trailing silent blocks : No
Null samples used in CRC calculations : Yes
Used interface : Installed external ASPI interface
Used output format : User Defined Encoder
Selected bitrate : 768 kBit/s
Quality : High
Add ID3 tag : No
Command line compressor : C:\Program Files (x86)\Exact Audio Copy\FLAC\FLAC.EXE
Additional command line options : -6 -V -T "ARTIST=%artist%" -T "TITLE=%title%" -T "ALBUM=%albumtitle%" -T "DATE=%year%" -T "TRACKNUMBER=%tracknr%" -T "GENRE=%genre%" -T "COMMENT=%comment%" -T "BAND=%albuminterpret%" -T "ALBUMARTIST=%albuminterpret%" -T "COMPOSER=%composer%" %haslyrics%--tag-from-file=LYRICS="%lyricsfile%"%haslyrics% -T "DISCNUMBER=%cdnumber%" -T "TOTALDISCS=%totalcds%" -T "TOTALTRACKS=%numtracks%" %hascover%--picture="%coverfile%"%hascover% %source% -o %dest%
TOC of the extracted CD
Track | Start | Length | Start sector | End sector
---------------------------------------------------------
1 | 0:00.33 | 9:11.00 | 33 | 41357
2 | 9:11.33 | 12:39.00 | 41358 | 98282
3 | 21:50.33 | 14:47.00 | 98283 | 164807
4 | 36:37.33 | 12:44.00 | 164808 | 222107
5 | 49:21.33 | 17:01.00 | 222108 | 298682
Range status and errors
Selected range
Filename C:\RIP\Brahms - Choral Works and Overtures (Sawallisch) CD2.wav
Peak level 95.2 %
Extraction speed 3.4 X
Range quality 100.0 %
Test CRC 6D93C0A1
Copy CRC 6D93C0A1
Copy OK
No errors occurred
AccurateRip summary
Track 1 accurately ripped (confidence 7) [2EC001BE] (AR v2)
Track 2 accurately ripped (confidence 7) [D2E69E67] (AR v2)
Track 3 accurately ripped (confidence 7) [AB21CDEE] (AR v2)
Track 4 accurately ripped (confidence 7) [4EA809D4] (AR v2)
Track 5 accurately ripped (confidence 7) [BE6CE6DF] (AR v2)
All tracks accurately ripped
End of status report
==== Log checksum 510F15FE175BF20C324C9EBED45AB64587C2CFFDF4312E915DCB451D50A6B4FA ====
Доп. информация: Recorded Vienna, 11/1959 (Op. 56a); 1/1961 (Op. 80); 4/1961 (Op. 81); 2/1962 (Op. 53, Op. 54, Op. 45)
[teatrix.ru].t18228.torrent 
Торрент: Зарегистрирован [ 2016-03-17 00:40 ] · 7A5FC6F49B865457EE59B8F86E58ECDC2F955976

Скачать .torrent

Скачать

15 KB

Статус: проверено
Скачан: 1 раз
Размер: 675 MB
terms.php



Быстрый ответ

Имя:

      
Для отправки сообщений необходимо включить JavaScript
Показать сообщения:    

Текущее время: 03-Дек 16:46

Часовой пояс: UTC + 3


Вы можете начинать темы
Вы можете отвечать на сообщения
Вы не можете редактировать свои сообщения
Вы не можете удалять свои сообщения
Вы не можете голосовать в опросах
Вы не можете прикреплять файлы к сообщениям
Вы можете скачивать файлы