(Classical, sacred) Jean Richafort: Requiem • Tributes to Josquin Desprez: Appenzeller, Gombert, Vinders, Jacquet of Mantua - The King’s Singers - 2013, FLAC (image+.cue) lossless


Статистика раздачи [Обновить пиров]
Размер:  244 MB   |    Зарегистрирован:  8 месяцев 17 дней   |    Скачан:  0 раз

Полного источника не было: Никогда

 
   
 
 
 

[Цитировать]

Jean Richafort: Requiem • Tributes to Josquin Desprez: Appenzeller, Gombert, Vinders, Jacquet of Mantua - The King’s Singers
Жанр: Classical, sacred
Страна-производитель диска: UK
Год издания диска: 2013
Издатель (лейбл): Signum Classics
Номер по каталогу: SIGCD326
Дата записи: 2012
Аудиокодек: FLAC
Тип рипа: image+.cue
Битрейт аудио: lossless
Продолжительность: 58:22
Источник: собственный рип
Наличие сканов в содержимом раздачи: да
Треклист:
Benedictus Appenzeller (c.1480-c.1558)
[1] Musae Jovis á 4
Nicolas Gombert (c.1495-c.1560)
[2] Musae Jovis á 6
Josquin Desprez (c.1450-1521)
[3] Salve regina
Jacquet of Mantua (1483-1559)
[4] Dum vastos Adriae fluctus
Hieronymus Vinders (fl.1510-1550)
[5] O mors inevitabilis
Jean Richafort (c.1480-c.1550)
[6]-[12] Requiem in Memoriam Josquin Desprez (Missa pro defunctis)
Josquin Desprez
[13] Nymphes, nappés
Исполнители:
The King’s Singers
David Hurley Countertenor
Timothy Wayne-Wright Countertenor
Paul Phoenix Tenor
Christopher Bruerton Baritone
Christopher Gabbitas Baritone
Jonathan Howard Bass

Лог создания рипа

Exact Audio Copy V1.0 beta 3 from 29. August 2011
EAC extraction logfile from 13. January 2014, 17:03
The King's Singers / Jean Richafort - Requiem
Used drive : HL-DT-STDVDRRW GWA-4164B Adapter: 5 ID: 0
Read mode : Secure
Utilize accurate stream : Yes
Defeat audio cache : Yes
Make use of C2 pointers : No
Read offset correction : 102
Overread into Lead-In and Lead-Out : No
Fill up missing offset samples with silence : Yes
Delete leading and trailing silent blocks : No
Null samples used in CRC calculations : Yes
Used interface : Native Win32 interface for Win NT & 2000
Used output format : User Defined Encoder
Selected bitrate : 896 kBit/s
Quality : High
Add ID3 tag : No
Command line compressor : C:\Program Files\Exact Audio Copy\FLAC\FLAC.EXE
Additional command line options : -V -8 %source%
TOC of the extracted CD
Track | Start | Length | Start sector | End sector
---------------------------------------------------------
1 | 0:00.00 | 5:47.17 | 0 | 26041
2 | 5:47.17 | 5:31.40 | 26042 | 50906
3 | 11:18.57 | 4:37.01 | 50907 | 71682
4 | 15:55.58 | 7:52.12 | 71683 | 107094
5 | 23:47.70 | 2:50.74 | 107095 | 119918
6 | 26:38.69 | 5:14.70 | 119919 | 143538
7 | 31:53.64 | 3:37.35 | 143539 | 159848
8 | 35:31.24 | 5:10.46 | 159849 | 183144
9 | 40:41.70 | 6:39.13 | 183145 | 213082
10 | 47:21.08 | 3:15.06 | 213083 | 227713
11 | 50:36.14 | 2:33.21 | 227714 | 239209
12 | 53:09.35 | 2:44.36 | 239210 | 251545
13 | 55:53.71 | 2:25.58 | 251546 | 262478
Range status and errors
Selected range
Filename D:\temp\Music\SIGCD326 - Richafort - Requiem (The King's Singers)\Richafort - Requiem.wav
Peak level 96.2 %
Extraction speed 3.6 X
Range quality 100.0 %
Test CRC 30A48BEF
Copy CRC 30A48BEF
Copy OK
No errors occurred
AccurateRip summary
Track 1 accurately ripped (confidence 1) [8A7532A5] (AR v2)
Track 2 accurately ripped (confidence 1) [5202C930] (AR v2)
Track 3 accurately ripped (confidence 1) [DA886D27] (AR v2)
Track 4 accurately ripped (confidence 1) [28EDCC87] (AR v2)
Track 5 accurately ripped (confidence 1) [C1C8B9BE] (AR v2)
Track 6 accurately ripped (confidence 1) [3020094A] (AR v2)
Track 7 accurately ripped (confidence 1) [0D379D70] (AR v2)
Track 8 accurately ripped (confidence 1) [7CF5E743] (AR v2)
Track 9 accurately ripped (confidence 1) [FF713DA7] (AR v2)
Track 10 accurately ripped (confidence 1) [2B8DD729] (AR v2)
Track 11 accurately ripped (confidence 1) [73216E7A] (AR v2)
Track 12 accurately ripped (confidence 1) [ABEC3C60] (AR v2)
Track 13 accurately ripped (confidence 1) [C5C04804] (AR v2)
All tracks accurately ripped
End of status report
==== Log checksum 70B63CAFFB2444CB65BA9164FC0EB94FEBA6D36D0B4E4FCE6A1966CF8FBE330A ====
[teatrix.ru].t18229.torrent 
Торрент: Зарегистрирован [ 2016-03-17 00:40 ] · 8E7108D45E63D7184A023B260E84667FD84CB122

Скачать .torrent

Скачать

39 KB

Статус: проверено
Скачан: 0 раз
Размер: 244 MB
terms.php



Быстрый ответ

Имя:

      
Для отправки сообщений необходимо включить JavaScript
Показать сообщения:    

Текущее время: 03-Дек 05:22

Часовой пояс: UTC + 3


Вы можете начинать темы
Вы можете отвечать на сообщения
Вы не можете редактировать свои сообщения
Вы не можете удалять свои сообщения
Вы не можете голосовать в опросах
Вы не можете прикреплять файлы к сообщениям
Вы можете скачивать файлы