(Romanticism, Concerto) [12"][24/96] Rachmaninoff - Piano Concerto No. 2 In C Minor (Sergei Rachmaninoff with The Philadelphia Orchestra - Leopold Stokowski, conductor) - 1929 (5×Shellac Album, 78 rpm), FLAC (tracks)


Статистика раздачи [Обновить пиров]
Размер:  340 MB   |    Зарегистрирован:  8 месяцев 19 дней   |    Скачан:  0 раз

Полного источника не было: Никогда

 
   
 
 
 

[Цитировать]


Rachmaninoff - Piano Concerto No. 2 In C Minor
Жанр: Romanticism, Concerto
Носитель: 12"
Год выпуска: 1929
Лейбл: Victor Red Seal – DM-58 (Reissued around 1940)
(5×Shellac Album, 12", 78 rpm)
Страна-производитель: USA
Аудио кодек: FLAC
Тип рипа: tracks
Формат записи: 24/96
Формат раздачи: 24/96
Продолжительность: 30:55
Треклист:
01 - First Movement: Moderato (Part 1) (02:59)
02 - First Movement: Moderato (Part 2) (03:22)
03 - First Movement: Meno Mosso (Concluded) (03:11)
04 - Second Movement: Adagio Sostenuto (Part 1) (02:55)
05 - Second Movement: Adagio Sostenuto (Part 2) (02:26)
06 - Second Movement: Adagio Sostenuto (Part 3) (02:34)
07 - Second Movement: Adagio Sostenuto (Concluded) (02:42)
08 - Third Movement: Allegro Scherzando (Part 1) (03:49)
09 - Third Movement: Allegro Scherzando (Part 2) (03:43)
10 - Third Movement: Meno Mosso (Concluded) (03:14)
Personnel:
- composed & pianist – Sergei Rakhmaninov (1873-1943)
- conductor – Leopold Stokowski (1882-1977)
- orchestra – The Philadelphia Orchestra
The original release was set M-58 in 1929
-Хочу этим прекрасным концертом великого композитора, в исполнении самого маэсто, поздравить всех женщин с Праздником Весны.-
Источник оцифровки: третьим лицом
Код класса состояния винила: Неизвестно

Ripping Info:

audio-technica AT-LP120 Direct Drive TT @ 78 rpm >
Cartridge Shure M78S >
Monster cable RCA interconnects >
M-Audio Audiophile 2496 PCI card >
recorded in 24bit 96kHz with Sound Forge Audio Studio 9 >
ClickRepair 3.9.1 Default 78 setting >
initial fade-in, final fade out with Sound Forge Audio Studio 9 >
flac 8 with FLAC frontend v2.1 >
tags with foobar2000
-

Dynamic Range Analysis:

==========================================================================
foobar2000 1.3.1 / Dynamic Range Meter 1.1.1
--------------------------------------------------------------------------------
Analyzed: Sergei Rachmaninoff – Piano Concerto No. 2 in C Minor, Op. 18
--------------------------------------------------------------------------------
DR Peak RMS Duration Track
--------------------------------------------------------------------------------
DR12 -2.59 dB -18.30 dB 2:59 ?-DM-58-1 Concerto No. 2, First Movement, part 1
DR13 -1.04 dB -18.82 dB 3:22 ?-DM-58-2 Concerto No. 2, First Movement, part 2.
DR13 -2.24 dB -19.57 dB 3:11 ?-DM-58-3 Concerto No. 2, First Movement, part 3
DR11 -5.50 dB -22.64 dB 2:55 ?-DM-58-4 Concerto No. 2, Second Movement, part 1
DR13 -7.29 dB -23.63 dB 2:26 ?-DM-58-5 Concerto No. 2, Second Movement, part 2
DR12 -2.04 dB -20.45 dB 2:34 ?-DM-58-6 Concerto No. 2, Second Movement, part 3
DR13 -4.93 dB -21.18 dB 2:42 ?-DM-58-7 Concerto No. 2, Second Movement, part 4
DR16 -0.78 dB -20.95 dB 3:49 ?-DM-58-8 Concerto No. 2, Third Movement, part 1
DR14 -0.40 dB -19.80 dB 3:43 ?-DM-58-9 Concerto No. 2, Third Movement, part 2
DR14 -0.73 dB -17.79 dB 3:14 ?-DM-58-10 Concerto No. 2, Third Movement, part 3
--------------------------------------------------------------------------------
Number of tracks: 10
Official DR value: DR13
Samplerate: 96000 Hz
Channels: 1
Bits per sample: 24
Bitrate: 1481 kbps
Codec: FLAC
==========================================================================

Спектр

АЧХ

Уровень записи

[teatrix.ru].t18233.torrent 
Торрент: Зарегистрирован [ 2016-03-17 00:40 ] · F2EB8C02C73997106BEE9197ADA48C3D6465276D

Скачать .torrent

Скачать

15 KB

Статус: проверено
Скачан: 0 раз
Размер: 340 MB
terms.php



Быстрый ответ

Имя:

      
Для отправки сообщений необходимо включить JavaScript
Показать сообщения:    

Текущее время: 05-Дек 07:28

Часовой пояс: UTC + 3


Вы можете начинать темы
Вы можете отвечать на сообщения
Вы не можете редактировать свои сообщения
Вы не можете удалять свои сообщения
Вы не можете голосовать в опросах
Вы не можете прикреплять файлы к сообщениям
Вы можете скачивать файлы