(Classical) Edward Elgar - Cello Concerto, Richard Strauss - Don Quixote. Мария Чайковская, Мурад Аннамамедов / Maria Tchaikovskay, cello. Murad Annamamedov, conductor - 1994, FLAC (image+.cue) lossless


Статистика раздачи [Обновить пиров]
Размер:  335 MB   |    Зарегистрирован:  8 месяцев 19 дней   |    Скачан:  0 раз

Полного источника не было: Никогда

 
   
 
 
 

[Цитировать]

Edward Elgar - Cello Concerto, Richard Strauss - Don Quixote. Maria Tchaikovskay, cello, Murad Annamamedov, conductor
Жанр: Classical
Страна-производитель диска: Russia
Год издания диска: 1994
Издатель (лейбл): Great Hall
Дата записи: 1994
Аудиокодек: FLAC
Тип рипа: image+.cue
Битрейт аудио: lossless
Продолжительность: 1.16'46''
Источник: собственный рип
Наличие сканов в содержимом раздачи: да
Треклист:
Edward ELGAR
CONCERTO FOR CELLO AND ORCHESTRA, op 85

1. I Adagio. Moderato 8'21"
2. II Lento. AAllegro molto 4'35"
3. III Adagio 8'21"
4. IV Adagio 4'35"
Richard STRAUSS
DON QUIXOTE, op.35

Fantastiche Variationen uber ein Thema ritterlichen Charakters
5. Introduktion (Massiges Zeitmass) 7'24"
6. Thema: Don Quixote (Massig); Sancho Panza (Maggiore) 2'30"
7. Variation I. (Gemachlich) 2'27"
8. Variation II. (Kriegerisch) 1'50"
9. Variation III. (Massiges Zeitmass) 8'57"
10. Variation IV. (Etwas breiter) 2'08"
11. Variation V. (Sehr Langsam) 5'29"
12. Variation VI. (Schnell) 1'16"
13. Variation VII. (Ein wenig ruhiger als vorher) 1 '19"
14. Variation VIII. (Gemachlich) 1'41"
15. Variation IX. (Schnell und sturmisch) 1'13"
16. Variation X. (Viel breiter) 5'05"
17. Finale. Sehr ruhig 5'05"
Total time - 1.16'46"
Исполнители:
Maria Tchaikovskaya - Cello
The State Symphony of Russia, Ye. Svetlanov - music director,
M. Annamamedov - conductor

Лог создания рипа

Exact Audio Copy V1.0 beta 3 from 29. August 2011
Отчёт EAC об извлечении, выполненном 9. марта 2014, 11:19
Unknown Artist / Edward Elgar - Cello Concerto. Richard Strauss - Don Quixote. Maria Tchaikovskaya, Cello. M. Annamamedov, Conductor
Дисковод: TSSTcorpBDDVDW SE-506BB Adapter: 1 ID: 0
Режим чтения : Достоверность
Использование точного потока : Да
Отключение кэша аудио : Да
Использование указателей C2 : Нет
Коррекция смещения при чтении : 6
Способность читать области Lead-in и Lead-out : Нет
Заполнение пропущенных сэмплов тишиной : Да
Удаление блоков с тишиной в начале и конце : Нет
При вычислениях CRC использовались нулевые сэмплы : Да
Интерфейс : Встроенный Win32-интерфейс для Win NT/2000
Выходной формат : Пользовательский кодировщик
Выбранный битрейт : 768 kBit/s
Качество : Высокий
Добавление ID3-тега : Нет
Утилита сжатия : E:\Program Files\audio\EAC\FLAC\FLAC.EXE
Дополнительные параметры : -6 -V -T "ARTIST=%artist%" -T "TITLE=%title%" -T "ALBUM=%albumtitle%" -T "DATE=%year%" -T "TRACKNUMBER=%tracknr%" -T "GENRE=%genre%" -T "COMMENT=%comment%" -T "BAND=%albuminterpret%" -T "ALBUMARTIST=%albuminterpret%" -T "COMPOSER=%composer%" %haslyrics%--tag-from-file=LYRICS="%lyricsfile%"%haslyrics% -T "DISCNUMBER=%cdnumber%" -T "TOTALDISCS=%totalcds%" -T "TOTALTRACKS=%numtracks%" %hascover%--picture="%coverfile%"%hascover% %source% -o %dest%
TOC извлечённого CD
Трек | Старт | Длительность | Начальный сектор | Конечный сектор
---------------------------------------------------------------------
1 | 0:00.20 | 8:21.13 | 20 | 37607
2 | 8:21.33 | 4:37.10 | 37608 | 58392
3 | 12:58.43 | 4:38.32 | 58393 | 79274
4 | 17:37.00 | 12:03.73 | 79275 | 133572
5 | 29:40.73 | 7:23.37 | 133573 | 166834
6 | 37:04.35 | 2:30.63 | 166835 | 178147
7 | 39:35.23 | 2:46.12 | 178148 | 190609
8 | 42:21.35 | 1:50.68 | 190610 | 198927
9 | 44:12.28 | 8:56.20 | 198928 | 239147
10 | 53:08.48 | 2:09.62 | 239148 | 248884
11 | 55:18.35 | 5:27.08 | 248885 | 273417
12 | 60:45.43 | 1:16.20 | 273418 | 279137
13 | 62:01.63 | 1:19.15 | 279138 | 285077
14 | 63:21.03 | 1:41.10 | 285078 | 292662
15 | 65:02.13 | 1:13.72 | 292663 | 298209
16 | 66:16.10 | 5:03.50 | 298210 | 320984
17 | 71:19.60 | 5:34.00 | 320985 | 346034
Характеристики диапазона извлечения и сообщения об ошибках
Выбранный диапазон
Имя файла M:\_Music\Classics\Elgar - Cello Concerto. Richard Strauss - Don Quixote. M. Tchaikovskaya, M. Annamamedov\Elgar - Cello Concerto, Richard Strauss - Don Quixote, Maria Tchaikovskaya, M. Annamamedov.wav
Пиковый уровень 100.0 %
Скорость извлечения 2.3 X
Качество диапазона 99.9 %
CRC копии B339DE49
Копирование... OK
Ошибок не произошло
AccurateRip: сводка
Трек 1 отсутствует в базе данных
Трек 2 отсутствует в базе данных
Трек 3 отсутствует в базе данных
Трек 4 отсутствует в базе данных
Трек 5 отсутствует в базе данных
Трек 6 отсутствует в базе данных
Трек 7 отсутствует в базе данных
Трек 8 отсутствует в базе данных
Трек 9 отсутствует в базе данных
Трек 10 отсутствует в базе данных
Трек 11 отсутствует в базе данных
Трек 12 отсутствует в базе данных
Трек 13 отсутствует в базе данных
Трек 14 отсутствует в базе данных
Трек 15 отсутствует в базе данных
Трек 16 отсутствует в базе данных
Трек 17 отсутствует в базе данных
Ни одного трека нет в базе AccurateRip
Конец отчёта

Содержание индексной карты (.CUE)

REM GENRE Classical
REM DATE 1994
REM DISCID F8120511
REM COMMENT "ExactAudioCopy v1.0b3"
PERFORMER "Maria Tchaikovskaya - Cello, M. Annamamedov - Conductor, The State Symphony of Russia"
TITLE "Edward Elgar - Cello Concerto. Richard Strauss - Don Quixote. Maria Tchaikovskaya - Cello, M. Annamamedov - Conductor"
FILE "Elgar - Cello Concerto, Richard Strauss - Don Quixote, Maria Tchaikovskaya, M. Annamamedov.flac" WAVE
TRACK 01 AUDIO
TITLE "I. Adagio. Moderato"
PERFORMER "E. Elgar: Cello Concerto"
INDEX 00 00:00:00
INDEX 01 00:00:20
TRACK 02 AUDIO
TITLE "II. Lento. Allegro molto"
PERFORMER "E. Elgar"
INDEX 00 08:21:30
INDEX 01 08:21:33
TRACK 03 AUDIO
TITLE "III. Adagio"
PERFORMER "E. Elgar"
INDEX 00 12:58:38
INDEX 01 12:58:43
TRACK 04 AUDIO
TITLE "IV. Adagio"
PERFORMER "E. Elgar"
INDEX 00 17:36:73
INDEX 01 17:37:00
TRACK 05 AUDIO
TITLE "Introduktion (Massiges Zeitmass)"
PERFORMER "R. Strauss: Don Quixote"
INDEX 00 29:40:68
INDEX 01 29:40:73
TRACK 06 AUDIO
TITLE "Thema: Don Quixote (Massig); Sancho Panza (Maggiore)"
PERFORMER "R. Strauss"
INDEX 00 37:04:30
INDEX 01 37:04:35
TRACK 07 AUDIO
TITLE "Variation I. (Gemachlich)"
PERFORMER "R. Strauss"
INDEX 00 39:35:20
INDEX 01 39:35:23
TRACK 08 AUDIO
TITLE "Variation II. (Kriegerisch)"
PERFORMER "R. Strauss"
INDEX 00 42:21:30
INDEX 01 42:21:35
TRACK 09 AUDIO
TITLE "Variation III. (Massiges Zeitmass)"
PERFORMER "R. Strauss"
INDEX 00 44:12:23
INDEX 01 44:12:28
TRACK 10 AUDIO
TITLE "Variation IV. (Etwas breiter)"
PERFORMER "R. Strauss"
INDEX 00 53:08:45
INDEX 01 53:08:48
TRACK 11 AUDIO
TITLE "Variation V. (Sehr Langsam)"
PERFORMER "R. Strauss"
INDEX 00 55:18:33
INDEX 01 55:18:35
TRACK 12 AUDIO
TITLE "Variation VI. (Schnell)"
PERFORMER "R. Strauss"
INDEX 00 60:45:40
INDEX 01 60:45:43
TRACK 13 AUDIO
TITLE "Variation VII. (Ein wenig ruhiger als vorher)"
PERFORMER "R. Strauss"
INDEX 00 62:01:60
INDEX 01 62:01:63
TRACK 14 AUDIO
TITLE "Variation VIII. (Gemachlich)"
PERFORMER "R. Strauss"
INDEX 00 63:20:73
INDEX 01 63:21:03
TRACK 15 AUDIO
TITLE "Variation IX. (Schnell und sturmisch)"
PERFORMER "R. Strauss"
INDEX 00 65:02:10
INDEX 01 65:02:13
TRACK 16 AUDIO
TITLE "Variation X. (Viel breiter)"
PERFORMER "R. Strauss"
INDEX 00 66:16:05
INDEX 01 66:16:10
TRACK 17 AUDIO
TITLE "Finale. Sehr ruhig"
PERFORMER "R. Strauss"
INDEX 00 71:19:58
INDEX 01 71:19:60
Очень хорошее исполнение!
[teatrix.ru].t18237.torrent 
Торрент: Зарегистрирован [ 2016-03-17 00:40 ] · 61E19826CCE3335F21C3FAF28AD6E4F604891524

Скачать .torrent

Скачать

14 KB

Статус: проверено
Скачан: 0 раз
Размер: 335 MB
terms.php



Быстрый ответ

Имя:

      
Для отправки сообщений необходимо включить JavaScript
Показать сообщения:    

Текущее время: 05-Дек 15:29

Часовой пояс: UTC + 3


Вы можете начинать темы
Вы можете отвечать на сообщения
Вы не можете редактировать свои сообщения
Вы не можете удалять свои сообщения
Вы не можете голосовать в опросах
Вы не можете прикреплять файлы к сообщениям
Вы можете скачивать файлы