(Classical) Alberto Ginastera, Francois-Adrien Boieldieu - Harp Concertos - Jutta Zoff, Staatskapelle Dresden, Siegfried Kurz - 2013, FLAC (image+.cue) lossless


Статистика раздачи [Обновить пиров]
Размер:  199 MB   |    Зарегистрирован:  8 месяцев 20 дней   |    Скачан:  0 раз

Полного источника не было: Никогда

 
   
 
 
 

[Цитировать]

Alberto Ginastera, Francois-Adrien Boieldieu - Harp Concertos - Jutta Zoff, Staatskapelle Dresden, Siegfried Kurz
Жанр: Classical
Год издания диска: 2013
Издатель (лейбл): Brilliant Classics
Номер по каталогу: 9438
Дата записи: 1981
Аудиокодек: FLAC
Тип рипа: image+.cue
Битрейт аудио: lossless
Продолжительность: 45:07
Источник: собственный рип
Наличие сканов в содержимом раздачи: да
Треклист:
François-Adrien Boieldieu (1775-1834)
[1]-[3] Harp Concerto in C major
Alberto Ginastera (1916-1983)
[4]-[6] Harp Concerto, Op.25
Исполнители:
Jutta Zoff harp
Staatskapelle Dresden
Siegfried Kurz

Лог создания рипа

Exact Audio Copy V1.0 beta 3 from 29. August 2011
EAC extraction logfile from 17. January 2014, 17:26
Jutta Zoff, Staatskapelle Dresden, Siegfried Kurz / Ginastera, Boieldieu - Harp Concertos
Used drive : HL-DT-STDVDRRW GWA-4164B Adapter: 5 ID: 0
Read mode : Secure
Utilize accurate stream : Yes
Defeat audio cache : Yes
Make use of C2 pointers : No
Read offset correction : 102
Overread into Lead-In and Lead-Out : No
Fill up missing offset samples with silence : Yes
Delete leading and trailing silent blocks : No
Null samples used in CRC calculations : Yes
Used interface : Native Win32 interface for Win NT & 2000
Used output format : User Defined Encoder
Selected bitrate : 896 kBit/s
Quality : High
Add ID3 tag : No
Command line compressor : C:\Program Files\Exact Audio Copy\FLAC\FLAC.EXE
Additional command line options : -V -8 %source%
TOC of the extracted CD
Track | Start | Length | Start sector | End sector
---------------------------------------------------------
1 | 0:00.00 | 10:58.45 | 0 | 49394
2 | 10:58.45 | 4:07.60 | 49395 | 67979
3 | 15:06.30 | 7:09.00 | 67980 | 100154
4 | 22:15.30 | 8:35.12 | 100155 | 138791
5 | 30:50.42 | 6:43.73 | 138792 | 169089
6 | 37:34.40 | 7:33.12 | 169090 | 203076
Range status and errors
Selected range
Filename D:\temp\Music\Ginastera, Boieldieu - Harp Concertos\Ginastera, Boieldieu - Harp Concertos.wav
Peak level 99.8 %
Extraction speed 3.5 X
Range quality 100.0 %
Test CRC 68A553A8
Copy CRC 68A553A8
Copy OK
No errors occurred
AccurateRip summary
Track 1 cannot be verified as accurate (confidence 1) [C88E2CAB], AccurateRip returned [B8EBA95A] (AR v2)
Track 2 cannot be verified as accurate (confidence 1) [ED718DCB], AccurateRip returned [23A83713] (AR v2)
Track 3 cannot be verified as accurate (confidence 1) [139ED517], AccurateRip returned [B3D9A843] (AR v2)
Track 4 cannot be verified as accurate (confidence 1) [EB4A8589], AccurateRip returned [ACFA435A] (AR v2)
Track 5 cannot be verified as accurate (confidence 1) [8B47EC45], AccurateRip returned [343CC3AE] (AR v2)
Track 6 cannot be verified as accurate (confidence 1) [1899F314], AccurateRip returned [7434815D] (AR v2)
No tracks could be verified as accurate
You may have a different pressing from the one(s) in the database
End of status report
==== Log checksum 4077B8B2E8645C557B125E9BCF7FB6F469E1409FA0042681B5DF2C24F48A57CB ====
[teatrix.ru].t18238.torrent 
Торрент: Зарегистрирован [ 2016-03-17 00:40 ] · 9433822B40BAE1C4EF919D1F45D2BB12633D02B1

Скачать .torrent

Скачать

32 KB

Статус: проверено
Скачан: 0 раз
Размер: 199 MB
terms.php



Быстрый ответ

Имя:

      
Для отправки сообщений необходимо включить JavaScript
Показать сообщения:    

Текущее время: 06-Дек 20:59

Часовой пояс: UTC + 3


Вы можете начинать темы
Вы можете отвечать на сообщения
Вы не можете редактировать свои сообщения
Вы не можете удалять свои сообщения
Вы не можете голосовать в опросах
Вы не можете прикреплять файлы к сообщениям
Вы можете скачивать файлы