Город звука / Sound City (Дэвид Грол/ David Grohl) [2013, Документальный, музыкальный, HDRip]


Статистика раздачи [Обновить пиров]
Размер:  1.7 GB   |    Зарегистрирован:  8 месяцев 18 дней   |    Скачан:  0 раз

Полного источника не было: Никогда

 
   
 
 
 

[Цитировать]

Город звука
Sound City

«Real to reel»
8.26 / 7.80- Год выпуска: 2013
Страна: США
Жанр: Документальный, музыкальный
Продолжительность: 01:47:16
Перевод: Профессиональный (двухголосый закадровый)
Русские субтитры: есть-Режиссер: Дэвид Грол/ David Grohl-Описание: Документальный фильм Дейва Грола об истории лос-анджелесской студии Sound City. Идея снять фильм пришла Гролу в 2011-м, после того, как в Ван Нойсе, штат Калифорния, закрылась студия Sound City. Он купил на распродаже оборудования студии пульт Neve, на котором записывались Metallica, Nine Inch Nails, Guns N’ Roses, Rage Against the Machine и многие другие легендарные коллективы (культовый альбом Nevermind группы Nirvana - в их числе). Свои воспоминания о Sound City в документальном фильме рассказывают Том Петти, Трент Резнор, Нил Янг, Ларс Ульрих (Metallica), Джон Фогерти, Джош Омм (Queens Of The Stone Age), Линдси Бакингем и Мик Флитвуд (Fleetwood Мас), Фрэнк Блэк, продюсеры Батч Виг и Рик Рубин и многие другие рок-герои. «Это фильм о правде, о ремесле и о целостности рок-н-ролла», - написал Грол в пресс-релизе, разосланном журналистам студией Roswell, на которой снималась картина. Фильм был представлен 18 января на фестивале "Сандэнс", там же состоялся дебют супергруппы Sound City Players, состоящей из героев картины Грола.- -Качество: HDRip
Формат: AVI
Видео: 704x400 (16:9), 23,976 fps, XviD build (1.2.1), ~1500 kbps avg, 0.22 bit/pixel
Аудио: 48.0 kHz, AC3 Dolby Digital, 3/2 (L,C,R,l,r) LFE ch, ~384.00 kbps avg

MediaInfo

Общее
Полное имя : A:\Фильмы\Sound.City.2013.HDRip\Sound.City.2013.HDRip.avi
Формат : AVI
Формат/Информация : Audio Video Interleave
Профиль формата : OpenDML
Настройки формата : rec
Размер файла : 1,70 Гбайт
Продолжительность : 1 ч. 47 м.
Общий поток : 2275 Кбит/сек
Программа кодирования : AVI-Mux GUI 1.17.8, Aug 30 2008 12:36:58
Видео
Идентификатор : 0
Формат : MPEG-4 Visual
Профиль формата : Advanced Simple@L5
Параметр BVOP формата : 4
Параметр QPel формата : Нет
Параметр GMC формата : Без точки перехода
Параметр матрицы формата : Default (MPEG)
Идентификатор кодека : XVID
Идентификатор кодека/Подсказка : XviD
Продолжительность : 1 ч. 47 м.
Битрейт : 1500 Кбит/сек
Ширина : 704 пикселя
Высота : 400 пикселей
Соотношение сторон : 16:9
Частота кадров : 23,976 кадра/сек
Цветовое пространство : YUV
Субдискретизация насыщенности : 4:2:0
Битовая глубина : 8 бит
Тип развёртки : Прогрессивная
Метод сжатия : С потерями
Бит/(Пиксели*Кадры) : 0.222
Размер потока : 1,12 Гбайт (66%)
Библиотека кодирования : XviD 1.2.1 (UTC 2008-12-04)
Аудио #1
Идентификатор : 1
Формат : AC-3
Формат/Информация : Audio Coding 3
Расширение режима : CM (complete main)
Параметр Endianness формата : Big
Идентификатор кодека : 2000
Продолжительность : 1 ч. 47 м.
Вид битрейта : Постоянный
Битрейт : 384 Кбит/сек
Каналы : 6 каналов
Расположение каналов : Front: L C R, Side: L R, LFE
Частота : 48,0 КГц
Битовая глубина : 16 бит
Метод сжатия : С потерями
Размер потока : 295 Мбайт (17%)
Выравнивание : Соединение по промежуткам
Продолжительность промежутка : 64 мс. (1,53 видеокадра)
Время предзагрузки промежутка : 192 мс.
Аудио #2
Идентификатор : 2
Формат : AC-3
Формат/Информация : Audio Coding 3
Расширение режима : CM (complete main)
Параметр Endianness формата : Big
Идентификатор кодека : 2000
Продолжительность : 1 ч. 47 м.
Вид битрейта : Постоянный
Битрейт : 384 Кбит/сек
Каналы : 6 каналов
Расположение каналов : Front: L C R, Side: L R, LFE
Частота : 48,0 КГц
Битовая глубина : 16 бит
Метод сжатия : С потерями
Размер потока : 295 Мбайт (17%)
Выравнивание : Соединение по промежуткам
Продолжительность промежутка : 64 мс. (1,53 видеокадра)
Время предзагрузки промежутка : 192 мс.
Общее
Полное имя : A:\Фильмы\Sound.City.2013.HDRip\Sound.City.2013.HDRip.rus.srt
Формат : SubRip
Размер файла : 1,65 Кбайт
Текст
Формат : SubRip
Метод сжатия : Без потерь

Скриншоты


[teatrix.ru].t18240.torrent 
Торрент: Зарегистрирован [ 2016-03-17 00:40 ] · DA7ACD9E2813E8021F6995AA70228F71FA1BE141

Скачать .torrent

Скачать

18 KB

Статус: проверено
Скачан: 0 раз
Размер: 1.7 GB
terms.php



Быстрый ответ

Имя:

      
Для отправки сообщений необходимо включить JavaScript
Показать сообщения:    

Текущее время: 04-Дек 15:14

Часовой пояс: UTC + 3


Вы можете начинать темы
Вы можете отвечать на сообщения
Вы не можете редактировать свои сообщения
Вы не можете удалять свои сообщения
Вы не можете голосовать в опросах
Вы не можете прикреплять файлы к сообщениям
Вы можете скачивать файлы