(Classical) Carl Philipp Emanuel Bach - Cello Concertos - Truls Mørk (Mork), Les Violons du Roy, Bernard Labadie - 2011, FLAC (image+.cue) lossless


Статистика раздачи [Обновить пиров]
Размер:  349 MB   |    Зарегистрирован:  8 месяцев 22 дня   |    Скачан:  0 раз

Полного источника не было: Никогда

 
   
 
 
 

[Цитировать]

Carl Philipp Emanuel Bach - Cello Concertos - Truls Mørk (Mork), Les Violons du Roy, Bernard Labadie
Жанр: Classical
Страна-производитель диска: UK
Год издания диска: 2011
Издатель (лейбл): Virgin Classics
Дата записи: 2008
Аудиокодек: FLAC
Тип рипа: image+.cue
Битрейт аудио: lossless
Продолжительность: 68:25
Источник: собственный рип
Наличие сканов в содержимом раздачи: да
Треклист:
Carl Philipp Emanuel Bach (1714-1788)
[1]-[3] Cello Concerto in A major, Wq.172
[4]-[6] Cello Concerto in B flat major, Wq.171
[7]-[9] Cello Concerto in A minor, Wq.170
Исполнители:
Truls Mørk cello
Les Violons du Roy
Bernard Labadie
direction

Лог создания рипа

Exact Audio Copy V1.0 beta 3 from 29. August 2011
EAC extraction logfile from 15. January 2014, 11:41
Truls Mork, Les Violons du Roy, Bernard Labadie / C.P.E. Bach - Cello Concertos
Used drive : HL-DT-STDVDRRW GWA-4164B Adapter: 5 ID: 0
Read mode : Secure
Utilize accurate stream : Yes
Defeat audio cache : Yes
Make use of C2 pointers : No
Read offset correction : 102
Overread into Lead-In and Lead-Out : No
Fill up missing offset samples with silence : Yes
Delete leading and trailing silent blocks : No
Null samples used in CRC calculations : Yes
Used interface : Native Win32 interface for Win NT & 2000
Used output format : User Defined Encoder
Selected bitrate : 896 kBit/s
Quality : High
Add ID3 tag : No
Command line compressor : C:\Program Files\Exact Audio Copy\FLAC\FLAC.EXE
Additional command line options : -V -8 %source%
TOC of the extracted CD
Track | Start | Length | Start sector | End sector
---------------------------------------------------------
1 | 0:00.00 | 6:26.60 | 0 | 29009
2 | 6:26.60 | 7:35.49 | 29010 | 63183
3 | 14:02.34 | 5:10.47 | 63184 | 86480
4 | 19:13.06 | 8:05.17 | 86481 | 122872
5 | 27:18.23 | 8:20.29 | 122873 | 160401
6 | 35:38.52 | 6:34.00 | 160402 | 189951
7 | 42:12.52 | 10:38.46 | 189952 | 237847
8 | 52:51.23 | 8:43.06 | 237848 | 277078
9 | 61:34.29 | 6:50.54 | 277079 | 307882
Range status and errors
Selected range
Filename D:\temp\Music\C.P.E. Bach - Cello Concertos (Truls Mork, Les Violons du Roy, Bernard Labadie)\C.P.E. Bach - Cello Concertos.wav
Peak level 93.5 %
Extraction speed 3.9 X
Range quality 100.0 %
Test CRC CF6D14A4
Copy CRC CF6D14A4
Copy OK
No errors occurred
AccurateRip summary
Track 1 accurately ripped (confidence 11) [DD28704B] (AR v2)
Track 2 accurately ripped (confidence 11) [98776C52] (AR v2)
Track 3 accurately ripped (confidence 11) [D2CD3250] (AR v2)
Track 4 accurately ripped (confidence 11) [96A9A703] (AR v2)
Track 5 accurately ripped (confidence 11) [CAC8DE89] (AR v2)
Track 6 accurately ripped (confidence 11) [9E528C5C] (AR v2)
Track 7 accurately ripped (confidence 11) [449724BF] (AR v2)
Track 8 accurately ripped (confidence 11) [3DB215E0] (AR v2)
Track 9 accurately ripped (confidence 11) [BB6C888B] (AR v2)
All tracks accurately ripped
End of status report
==== Log checksum 6BAFBDA9E866E5840D870608116585C2C9BC26FD09C5003F299558DA6E0FAAC2 ====
[teatrix.ru].t18249.torrent 
Торрент: Зарегистрирован [ 2016-03-17 00:40 ] · 47E714CCE7FE8F53FFD970007BA112DE2078D893

Скачать .torrent

Скачать

29 KB

Статус: проверено
Скачан: 0 раз
Размер: 349 MB
terms.php



Быстрый ответ

Имя:

      
Для отправки сообщений необходимо включить JavaScript
Показать сообщения:    

Текущее время: 08-Дек 12:57

Часовой пояс: UTC + 3


Вы можете начинать темы
Вы можете отвечать на сообщения
Вы не можете редактировать свои сообщения
Вы не можете удалять свои сообщения
Вы не можете голосовать в опросах
Вы не можете прикреплять файлы к сообщениям
Вы можете скачивать файлы