(Classical) Bach - Messe H-Moll (Mass in B-Minor), BWV 232 (Popp, Watkinson, Buchner, Lorenz, Adam, Bernstein, Rundfunkchor Leipzig; Neues Bachisches Collegium Musicum, Peter Schreier) - 1998, FLAC (image+.cue) lossless


Статистика раздачи [Обновить пиров]
Размер:  535 MB   |    Зарегистрирован:  8 месяцев 22 дня   |    Скачан:  0 раз

Полного источника не было: Никогда

 
   
 
 
 

[Цитировать]

Bach - Messe H-Moll, BWV 232 (Popp, Watkinson, Buchner, Lorenz, Adam, Bernstein, Rundfunkchor Leipzig; Neues Bachisches Collegium Musicum, Peter Schreier)
Жанр: Classical
Год издания диска: 1998
Издатель (лейбл): BERLIN CLASSICS
Номер по каталогу: 0021232BC
Аудиокодек: FLAC
Тип рипа: image+.cue
Битрейт аудио: lossless
Продолжительность: CD1: 72’36, CD2: 64’18
Источник: собственный рип
Наличие сканов в содержимом раздачи: да
Треклист:
CD1
1. MISSA. I. Chorus: Kyrie eleison (8:30)
2. II. Duet (soprano, contralto): Christe eleison (5:22)
3. III. Chorus: Kyrie eleison (3:10)
4. GLORIA. IV. Chorus: Gloria in excelsis (1:50)
5. Chorus: Et in terra pax (4:28)
6. VI. Aria (contralto): Laudamus te (4:29)
7. VII. Chorus: Gratias agimus tibi (2:37)
8. VIII. Duet (soprano, tenor): Domine Deus (6:02)
9. IX. Chorus: Qui tollis peccata mundi (3:30)
10. X. Aria (contralto). Qui sedes ad dextram Patris (4:49)
11. XI. Aria (bass): Quoniam tu solus Sanctus (4:50)
12. XII. Chorus: Cum Sancto Spiritu (4:06)
CD2
1. CREDO. I. Chorus: Credo in unum Deum (2:09)
2. II. Chorus: Credo in unum Deum, Patrem omnipotentem (2:09)
3. III. Duet (soprano, contralto): Et in unum Dominum (4:56)
4. IV. Chorus: Et incarnatus est (3:17)
5. V. Chorus: Crucifixus (2:31)
6. VI. Chorus: Et resurrexit (4:31)
7. VII. Aria (bass): Et in Spiritum Sanctum (5:52)
8. VIII. Chorus: Confiteor (1:26)
9. IX. Chorus: Et exspecto resurrectionem (2:20)
10. SANCTUS. Chorus: Sanctus (2:23)
11. I. Chorus: Osanna in excelsis (3:02)
12. II. Aria (tenor): Benedictus (4:52)
13. III. Chorus: Osanna in excelsis (repetatur) (3:01)
14. AGNUS DEI. IV. Aria (contralto): Agnus Dei (5:44)
15. V. Chorus: Dona nobis pacem (2:47)
Исполнители:
Soprano: Lucia Popp;
Alto: Carolyn Watkinson;
Tenor: Eberhard Büchner;
Baritone [No. 18]: Siegfried Lorenz;
Bass [No. 10]: Theo Adam
Walter Heinz Bernstein (Organ)
Rundfunkchor Leipzig (Chorus Master: Jörg-Peter Weigle)
Neues Bachisches Collegium Musicum
Peter Schreier

LOG EAC

CD 1

Exact Audio Copy V1.0 beta 3 from 29. August 2011
EAC extraction logfile from 22. January 2014, 14:09
Peter Schreier / Bach- Messe H-Moll Mass in B-Minor, BWV 232 - CD 1
Used drive : ATAPI iHAS122 C Adapter: 0 ID: 1
Read mode : Secure
Utilize accurate stream : Yes
Defeat audio cache : Yes
Make use of C2 pointers : No
Read offset correction : 6
Overread into Lead-In and Lead-Out : No
Fill up missing offset samples with silence : Yes
Delete leading and trailing silent blocks : No
Null samples used in CRC calculations : Yes
Used interface : Installed external ASPI interface
Used output format : User Defined Encoder
Selected bitrate : 192 kBit/s
Quality : High
Add ID3 tag : No
Command line compressor : C:\Program Files\Exact Audio Copy\Flac\flac.exe
Additional command line options : -V -8 -T "Date=%year%" -T "Genre=%genre%" %source%
TOC of the extracted CD
Track | Start | Length | Start sector | End sector
---------------------------------------------------------
1 | 0:00.00 | 8:30.25 | 0 | 38274
2 | 8:30.25 | 5:22.39 | 38275 | 62463
3 | 13:52.64 | 3:09.48 | 62464 | 76686
4 | 17:02.37 | 1:49.65 | 76687 | 84926
5 | 18:52.27 | 4:27.60 | 84927 | 105011
6 | 23:20.12 | 4:29.10 | 105012 | 125196
7 | 27:49.22 | 2:37.10 | 125197 | 136981
8 | 30:26.32 | 6:02.35 | 136982 | 164166
9 | 36:28.67 | 3:29.38 | 164167 | 179879
10 | 39:58.30 | 4:49.27 | 179880 | 201581
11 | 44:47.57 | 4:49.55 | 201582 | 223311
12 | 49:37.37 | 4:06.15 | 223312 | 241776
Range status and errors
Selected range
Filename C:\Program Files\Exact Audio Copy\Flac\Bach- Messe H-Moll Mass in B-Minor, BWV 232 (Peter Schreier) - CD 1.wav
Peak level 98.0 %
Extraction speed 8.7 X
Range quality 99.9 %
Test CRC BC71915B
Copy CRC BC71915B
Copy OK
No errors occurred
AccurateRip summary
Track 1 accurately ripped (confidence 3) [2C37D4C3] (AR v2)
Track 2 accurately ripped (confidence 3) [E8EB1015] (AR v2)
Track 3 accurately ripped (confidence 3) [1505D99A] (AR v2)
Track 4 accurately ripped (confidence 3) [C5C285E8] (AR v2)
Track 5 accurately ripped (confidence 3) [C42C370E] (AR v2)
Track 6 accurately ripped (confidence 3) [10DDE236] (AR v2)
Track 7 accurately ripped (confidence 3) [AE0FA00C] (AR v2)
Track 8 accurately ripped (confidence 3) [FB9B9413] (AR v2)
Track 9 accurately ripped (confidence 3) [DE728D11] (AR v2)
Track 10 accurately ripped (confidence 3) [3E94E33A] (AR v2)
Track 11 accurately ripped (confidence 3) [E311C029] (AR v2)
Track 12 accurately ripped (confidence 3) [5BE79D8A] (AR v2)
All tracks accurately ripped
End of status report
==== Log checksum F30B0534E66E76E0AFE2B01613EFBD059E78859E6F50DBDCF3CE944BBB6E4298 ====

CD 2

Exact Audio Copy V1.0 beta 3 from 29. August 2011
EAC extraction logfile from 22. January 2014, 14:46
Peter Schreier / Bach- Messe H-Moll Mass in B-Minor, BWV 232 - CD 2
Used drive : ATAPI iHAS122 C Adapter: 0 ID: 1
Read mode : Secure
Utilize accurate stream : Yes
Defeat audio cache : Yes
Make use of C2 pointers : No
Read offset correction : 6
Overread into Lead-In and Lead-Out : No
Fill up missing offset samples with silence : Yes
Delete leading and trailing silent blocks : No
Null samples used in CRC calculations : Yes
Used interface : Installed external ASPI interface
Used output format : User Defined Encoder
Selected bitrate : 192 kBit/s
Quality : High
Add ID3 tag : No
Command line compressor : C:\Program Files\Exact Audio Copy\Flac\flac.exe
Additional command line options : -V -8 -T "Date=%year%" -T "Genre=%genre%" %source%
TOC of the extracted CD
Track | Start | Length | Start sector | End sector
---------------------------------------------------------
1 | 0:00.00 | 2:09.15 | 0 | 9689
2 | 2:09.15 | 2:09.10 | 9690 | 19374
3 | 4:18.25 | 4:56.22 | 19375 | 41596
4 | 9:14.47 | 3:16.40 | 41597 | 56336
5 | 12:31.12 | 2:30.65 | 56337 | 67651
6 | 15:02.02 | 4:31.23 | 67652 | 87999
7 | 19:33.25 | 5:51.57 | 88000 | 114381
8 | 25:25.07 | 4:28.10 | 114382 | 134491
9 | 29:53.17 | 2:20.43 | 134492 | 145034
10 | 32:13.60 | 4:34.65 | 145035 | 165649
11 | 36:48.50 | 3:01.42 | 165650 | 179266
12 | 39:50.17 | 4:52.43 | 179267 | 201209
13 | 44:42.60 | 3:00.35 | 201210 | 214744
14 | 47:43.20 | 5:44.02 | 214745 | 240546
15 | 53:27.22 | 2:47.18 | 240547 | 253089
Range status and errors
Selected range
Filename C:\Program Files\Exact Audio Copy\Flac\Bach- Messe H-Moll Mass in B-Minor, BWV 232 (Peter Schreier) - CD 2.wav
Peak level 98.0 %
Extraction speed 8.8 X
Range quality 100.0 %
Test CRC 8EE9AB8B
Copy CRC 8EE9AB8B
Copy OK
No errors occurred
AccurateRip summary
Track 1 accurately ripped (confidence 3) [71BDC032] (AR v2)
Track 2 accurately ripped (confidence 3) [20BF32CD] (AR v2)
Track 3 accurately ripped (confidence 3) [07819D7C] (AR v2)
Track 4 accurately ripped (confidence 3) [3CB59DC5] (AR v2)
Track 5 accurately ripped (confidence 3) [03A17B52] (AR v2)
Track 6 accurately ripped (confidence 3) [7962BFDC] (AR v2)
Track 7 accurately ripped (confidence 3) [239D7E64] (AR v2)
Track 8 accurately ripped (confidence 3) [77A48F0C] (AR v2)
Track 9 accurately ripped (confidence 3) [F32268BE] (AR v2)
Track 10 accurately ripped (confidence 3) [43882B9A] (AR v2)
Track 11 accurately ripped (confidence 3) [C565802D] (AR v2)
Track 12 accurately ripped (confidence 3) [01EBED89] (AR v2)
Track 13 accurately ripped (confidence 3) [5D262496] (AR v2)
Track 14 accurately ripped (confidence 3) [C9ABFFA9] (AR v2)
Track 15 accurately ripped (confidence 3) [1D24C913] (AR v2)
All tracks accurately ripped
End of status report
==== Log checksum 488E892C227CFB41F513D3225E3410D0FA4E1D5FA6C3415BCD5BDA8EC28A5030 ====
mp3
[teatrix.ru].t18253.torrent 
Торрент: Зарегистрирован [ 2016-03-17 00:40 ] · C96FAB97CD7BCF0E9FFFFE1B46B1B2E0D1FF76E2

Скачать .torrent

Скачать

12 KB

Статус: проверено
Скачан: 0 раз
Размер: 535 MB
terms.php



Быстрый ответ

Имя:

      
Для отправки сообщений необходимо включить JavaScript
Показать сообщения:    

Текущее время: 08-Дек 09:02

Часовой пояс: UTC + 3


Вы можете начинать темы
Вы можете отвечать на сообщения
Вы не можете редактировать свои сообщения
Вы не можете удалять свои сообщения
Вы не можете голосовать в опросах
Вы не можете прикреплять файлы к сообщениям
Вы можете скачивать файлы