(Piano concerto) П.Чайковский - Фортепианные концерты №№1 и 2 (Friedrich Wuhrer | Wiener Symphoniker - H.Hollreiser) - 2011, FLAC (image+.cue) lossless


Статистика раздачи [Обновить пиров]
Размер:  295 MB   |    Зарегистрирован:  8 месяцев 19 дней   |    Скачан:  0 раз

Полного источника не было: Никогда

 
   
 
 
 

[Цитировать]

tchaikovsky
piano concertos 1 & 2
friedrich wührer
----- Жанр: Piano concerto
Страна-производитель диска: USA
Год издания диска: 2011
Издатель (лейбл): 3 Mile Island
Дата записи: 1955/60
Аудиокодек: FLAC
Тип рипа: image+.cue
Битрейт аудио: lossless
Продолжительность: 66'33''
Источник: собственный рип
Наличие сканов в содержимом раздачи: да
Треклист:
Фортепианный концерт №1
[1] I. Allegro non troppo e molto maestoso
[2] II. Andante simplice
[3] III. Allegro con fuoco
Фортепианный концерт №2
[4] I. Allegro brillante e molto vivace
[5] II. Andante non troppo
[6] III. Allegro con fuoco
Исполнители:
Friedrich Wührer
Wiener Symphoniker - Heinrich Hollreiser
-

Лог создания рипа

Exact Audio Copy V1.0 beta 3 from 29. August 2011
EAC extraction logfile from 16. February 2014, 22:00
Friedrich Wührer; Wiener Symphoniker - H.Hollreiser / Tchaikovsky - Piano concertos Nos.1 and 2
Used drive : COMPAQ CD-ROM LTN403 Adapter: 0 ID: 0
Read mode : Secure
Utilize accurate stream : Yes
Defeat audio cache : Yes
Make use of C2 pointers : No
Read offset correction : -1164
Overread into Lead-In and Lead-Out : No
Fill up missing offset samples with silence : Yes
Delete leading and trailing silent blocks : No
Null samples used in CRC calculations : Yes
Used interface : Native Win32 interface for Win NT & 2000
Used output format : User Defined Encoder
Selected bitrate : 1024 kBit/s
Quality : High
Add ID3 tag : No
Command line compressor : C:\Program Files\FLAC\flac.exe
Additional command line options : -T"COMMENT=rip by el coronel" -8 -V %source%
TOC of the extracted CD
Track | Start | Length | Start sector | End sector
---------------------------------------------------------
1 | 0:00.00 | 19:47.22 | 0 | 89046
2 | 19:47.22 | 7:50.01 | 89047 | 124297
3 | 27:37.23 | 7:11.61 | 124298 | 156683
4 | 34:49.09 | 19:46.13 | 156684 | 245646
5 | 54:35.22 | 7:05.31 | 245647 | 277552
6 | 61:40.53 | 4:52.12 | 277553 | 299464
Range status and errors
Selected range
Filename D:\Tchaikovsky - Piano concertos Nos.1 and 2 (Wuhrer).wav
Peak level 98.8 %
Extraction speed 3.0 X
Range quality 100.0 %
Test CRC F8C9A0EE
Copy CRC F8C9A0EE
Copy OK
No errors occurred
End of status report
==== Log checksum CFE79BF4A2F32873E96AE4AF4F5E837E342F23ED25B39F79CB8E2F0A319EC6D7 ====

Содержание индексной карты (.CUE)

REM GENRE Classical
REM DATE 2011
REM DISCID 550F9806
REM COMMENT "ExactAudioCopy v1.0b3"
PERFORMER "Friedrich Wuhrer; Wiener Symphoniker - H.Hollreiser"
TITLE "Tchaikovsky - Piano concertos Nos.1 and 2"
FILE "Tchaikovsky - Piano concertos Nos.1 and 2 (Wuhrer).flac" WAVE
TRACK 01 AUDIO
TITLE "Piano concerto No.1: I. Allegro non troppo e molto maestoso"
PERFORMER "Friedrich Wuhrer; Wiener Symphoniker - H.Hollreiser"
INDEX 01 00:00:00
TRACK 02 AUDIO
TITLE "II. Andante simplice"
PERFORMER "Friedrich Wuhrer; Wiener Symphoniker - H.Hollreiser"
INDEX 00 19:47:21
INDEX 01 19:47:22
TRACK 03 AUDIO
TITLE "III. Allegro con fuoco"
PERFORMER "Friedrich Wuhrer; Wiener Symphoniker - H.Hollreiser"
INDEX 00 27:37:18
INDEX 01 27:37:23
TRACK 04 AUDIO
TITLE "Piano concerto No.2: II. Allegro brillante e molto vivace"
PERFORMER "Friedrich Wuhrer; Wiener Symphoniker - H.Hollreiser"
INDEX 00 34:49:08
INDEX 01 34:49:09
TRACK 05 AUDIO
TITLE "II. Andante non troppo"
PERFORMER "Friedrich Wuhrer; Wiener Symphoniker - H.Hollreiser"
INDEX 00 54:35:20
INDEX 01 54:35:22
TRACK 06 AUDIO
TITLE "III. Allegro con fuoco"
PERFORMER "Friedrich Wuhrer; Wiener Symphoniker - H.Hollreiser"
INDEX 00 61:40:52
INDEX 01 61:40:53
-
[teatrix.ru].t18257.torrent 
Торрент: Зарегистрирован [ 2016-03-17 00:40 ] · 2F0AE4ECC730F77239DAB83621C162264F162D39

Скачать .torrent

Скачать

12 KB

Статус: проверено
Скачан: 0 раз
Размер: 295 MB
terms.php



Быстрый ответ

Имя:

      
Для отправки сообщений необходимо включить JavaScript
Показать сообщения:    

Текущее время: 05-Дек 01:27

Часовой пояс: UTC + 3


Вы можете начинать темы
Вы можете отвечать на сообщения
Вы не можете редактировать свои сообщения
Вы не можете удалять свои сообщения
Вы не можете голосовать в опросах
Вы не можете прикреплять файлы к сообщениям
Вы можете скачивать файлы