(Clasical, Baroque) Heinrich Ignaz Franz von Biber - Sacred and Profane - Musica Antiqua Koln, Reinhard Goebel; Gabrieli Consort & Players, Paul McCreesh - 2013, FLAC (image+.cue) lossless


Статистика раздачи [Обновить пиров]
Размер:  2.06 GB   |    Зарегистрирован:  10 месяцев 2 дня   |    Скачан:  1 раз

Полного источника не было: 23 дня

 
   
 
 
 

[Цитировать]

Heinrich Ignaz Franz von Biber - Sacred and Profane - Musica Antiqua Köln, Reinhard Goebel; Gabrieli Consort & Players, Paul McCreesh
Жанр: Clasical, Baroque
Страна-производитель диска: Germany
Год издания диска: 2013
Издатель (лейбл): Deutsche Grammophon
Дата записи: 1987-2004
Аудиокодек: FLAC
Тип рипа: image+.cue
Битрейт аудио: lossless
Продолжительность: 7:07:04
Источник: собственный рип
Наличие сканов в содержимом раздачи: да
Треклист:

CD1: Missa Salisburgensis; Sonata Sancti Polycarpi

Bartholomäus Riedl (d.1688)
[1] Ein langer und schöner Aufzug
Pater Ignatius Augustiner (17th century)
Ein schöner Aufzug
Heinrich Ignaz Franz von Biber (1644-1704)
Missa Salisburgensis in C major in 53 parts
[2] Kyrie
[3] Gloria
[4] Sonatae tam aris quam aulis servientes: Sonata XII
[5] Credo
[6] Sonatae tam aris quam aulis servientes: Sonata V
[7] Sanctus - Benedictus
[8] Agnus Dei
[9] Sonata Sancti Polycarpi
[10] Motet 'Plaudite tympana'
Musica Antiqua Köln
Reinhard Goebel
Gabrieli Consort & Players
Paul McCreesh

CD2: A programme to celebrate the 300th anniversary of the death of Heinrich Ignaz Franz von Biber

Media vita in morte sumus
In the midst of the life we are in death
Vita
Georg Muffat (1653-1704)
[1] Ciacona
Heinrich Ignaz Franz von Biber
[2] Missa ex B a 6 - Kyrie
[3] Missa ex B a 6 - Gloria
Johann Heinrich Schmelzer (c1620-1680)
[4] Sonata XIII
Heinrich Ignaz Franz von Biber
[5] Missa ex B a 6 - Credo
Abraham Megerle (1607-1680)
[6] Peccator et consolator a 2
Heinrich Ignaz Franz von Biber
[7] Missa ex B a 6 - Sanctus
Anonymous
[8] Praeludium legatura
Heinrich Ignaz Franz von Biber
[9] Missa ex B a 6 - Agnus Dei
Orlando di Lasso (1532-1594)
[10] Ave verum corpus a 6
Johann Heinrich Schmelzer
[11] Sonata II
Mors
Anonymous
[12] Praeludium
Heinrich Ignaz Franz von Biber
[13]-[19] Requiem ex F con terza minore
Orlando di Lasso
[20]Media vita in morte sumus a 6
Gabrieli Consort & Players
Paul McCreesh

CD3-CD4: 15 Sonaten über Mysterien des Rosenkranzes für Violine und Basso Continuo & Passacaglia für Violine solo

Heinrich Ignaz Franz von Biber
15 Sonaten über Mysterien des Rosenkranzes für Violine und Basso Continuo & Passacaglia für Violine solo
CD3
[1] Sonata I: Die Verkündigung
[2] Sonata II: Mariä Besuch bei Elisabeth
[3] Sonata III: Christi Geburt
[4] Sonata IV: Christi Darstellung im Tempel
[5] Sonata V: Der zwölfjährige Jesus im Tempel
[6] Sonata VI: Christi Leiden am Ölberg
[7] Sonata VII: Die Geißelung
[8] Sonata VIII: Die Dornenkrönung
CD4
[1] Sonata IX: Die Kreuztragung
[2] Sonata X: Die Kreuzigung
[3] Sonata XI: Die Auferstehung
[4] Sonata XII: Christi Himmelfahrt
[5] Sonata XIII: Ausgießung des Heiligen Geistes
[6] Sonata XIV: Mariä Himmelfahrt
[7] Sonata XV: Die Krönung der Jungfrau Maria
[8] Passacaglia
Musica Antiqua Köln
Reinhard Goebel

CD5: Mensa sonora

Heinrich Ignaz Franz von Biber
Mensa sonora
[1]-[6] Pars I in D major
[7]-[12] Pars II in F major
[13]-[17] Pars III in A minor
[18]-[26] Sonatina violino solo representativa in A major
[27]-[33] Mensa sonora: Pars IV in B flat major
[34]-[40] Pars V in E major
[41]-[47] Pars VI in G minor
Musica Antiqua Köln
Reinhard Goebel

CD6-CD7: Harmonia artificioso-ariosa diversi mode accordata

Heinrich Ignaz Franz von Biber
Harmonia artificioso-ariosa diversi mode accordata
CD6
[1]-[5] Partia I in D minor for 2 Violins and Basso continuo
[6]-[10] Partia II in B minor for 2 Violini piccoli and Basso continuo
[11]-[16] Partia III in A major for 2 Violins and Basso continuo
[17]-[23] Partia IV in E flat major for Violin, Viola and Basso continuo
CD7
[1]-[5] Partia V in G minor for 2 Violins and Basso continuo
[6]-[8] Partia VI in D major for 2 Violins and Basso continuo
[9]-[15] Partia VII in C minor for 2 Viole d'amore and Basso continuo
Musica Antiqua Köln
Reinhard Goebel
Исполнители:
Musica Antiqua Köln
Reinhard Goebel
Gabrieli Consort & Players
Paul McCreesh

Лог создания рипа: CD1

Exact Audio Copy V1.0 beta 3 from 29. August 2011
EAC extraction logfile from 23. December 2013, 15:44
Musica Antiqua Köln, Reinhard Goebel; Gabrieli Consort & Players, Paul McCreesh / Biber - Sacred and Profane - CD1
Used drive : HL-DT-STDVDRRW GWA-4164B Adapter: 5 ID: 0
Read mode : Secure
Utilize accurate stream : Yes
Defeat audio cache : Yes
Make use of C2 pointers : No
Read offset correction : 102
Overread into Lead-In and Lead-Out : No
Fill up missing offset samples with silence : Yes
Delete leading and trailing silent blocks : No
Null samples used in CRC calculations : Yes
Used interface : Native Win32 interface for Win NT & 2000
Used output format : User Defined Encoder
Selected bitrate : 896 kBit/s
Quality : High
Add ID3 tag : No
Command line compressor : C:\Program Files\Exact Audio Copy\FLAC\FLAC.EXE
Additional command line options : -V -8 %source%
TOC of the extracted CD
Track | Start | Length | Start sector | End sector
---------------------------------------------------------
1 | 0:00.00 | 2:39.00 | 0 | 11924
2 | 2:39.00 | 5:51.00 | 11925 | 38249
3 | 8:30.00 | 9:44.00 | 38250 | 82049
4 | 18:14.00 | 5:21.00 | 82050 | 106124
5 | 23:35.00 | 15:05.00 | 106125 | 173999
6 | 38:40.00 | 6:03.00 | 174000 | 201224
7 | 44:43.00 | 8:05.00 | 201225 | 237599
8 | 52:48.00 | 8:26.00 | 237600 | 275549
9 | 61:14.00 | 4:34.00 | 275550 | 296099
10 | 65:48.00 | 6:02.00 | 296100 | 323249
Range status and errors
Selected range
Filename D:\temp\Music\Biber - Sacred and Profane\Biber - Sacred and Profane - CD1.wav
Peak level 99.9 %
Extraction speed 3.3 X
Range quality 99.9 %
Test CRC 23F5B99B
Copy CRC 23F5B99B
Copy OK
No errors occurred
AccurateRip summary
Track 1 accurately ripped (confidence 13) [0514124F] (AR v2)
Track 2 accurately ripped (confidence 12) [E8C2AED4] (AR v2)
Track 3 accurately ripped (confidence 13) [4F70C3A7] (AR v2)
Track 4 accurately ripped (confidence 13) [C1BC29EA] (AR v2)
Track 5 accurately ripped (confidence 13) [C6C9D877] (AR v2)
Track 6 accurately ripped (confidence 12) [AB446419] (AR v2)
Track 7 accurately ripped (confidence 13) [9C596DD8] (AR v2)
Track 8 accurately ripped (confidence 13) [D89AC24E] (AR v2)
Track 9 accurately ripped (confidence 13) [BFF6BA69] (AR v2)
Track 10 accurately ripped (confidence 13) [A0388922] (AR v2)
All tracks accurately ripped
End of status report
==== Log checksum 08ABCD744D8A1B245246E61803106648A1FF965376C7AC9588DF13E76FEE27E8 ====

Лог создания рипа: CD2

Exact Audio Copy V1.0 beta 3 from 29. August 2011
EAC extraction logfile from 2. January 2014, 15:50
Gabrieli Consort & Players, Paul McCreesh / Biber - Sacred and Profane - CD2
Used drive : HL-DT-STDVDRRW GWA-4164B Adapter: 5 ID: 0
Read mode : Secure
Utilize accurate stream : Yes
Defeat audio cache : Yes
Make use of C2 pointers : No
Read offset correction : 102
Overread into Lead-In and Lead-Out : No
Fill up missing offset samples with silence : Yes
Delete leading and trailing silent blocks : No
Null samples used in CRC calculations : Yes
Used interface : Native Win32 interface for Win NT & 2000
Used output format : User Defined Encoder
Selected bitrate : 896 kBit/s
Quality : High
Add ID3 tag : No
Command line compressor : C:\Program Files\Exact Audio Copy\FLAC\FLAC.EXE
Additional command line options : -V -8 %source%
TOC of the extracted CD
Track | Start | Length | Start sector | End sector
---------------------------------------------------------
1 | 0:00.00 | 3:11.03 | 0 | 14327
2 | 3:11.03 | 1:47.51 | 14328 | 22403
3 | 4:58.54 | 6:18.66 | 22404 | 50819
4 | 11:17.45 | 3:44.32 | 50820 | 67651
5 | 15:02.02 | 9:25.61 | 67652 | 110087
6 | 24:27.63 | 4:26.68 | 110088 | 130105
7 | 28:54.56 | 3:42.17 | 130106 | 146772
8 | 32:36.73 | 2:36.28 | 146773 | 158500
9 | 35:13.26 | 3:35.40 | 158501 | 174665
10 | 38:48.66 | 3:13.46 | 174666 | 189186
11 | 42:02.37 | 3:11.42 | 189187 | 203553
12 | 45:14.04 | 1:23.66 | 203554 | 209844
13 | 46:37.70 | 2:50.20 | 209845 | 222614
14 | 49:28.15 | 2:06.21 | 222615 | 232085
15 | 51:34.36 | 7:42.36 | 232086 | 266771
16 | 59:16.72 | 4:24.43 | 266772 | 286614
17 | 63:41.40 | 4:13.34 | 286615 | 305623
18 | 67:54.74 | 3:55.45 | 305624 | 323293
19 | 71:50.44 | 2:14.54 | 323294 | 333397
20 | 74:05.23 | 6:58.46 | 333398 | 364793
Range status and errors
Selected range
Filename D:\temp\Music\Biber - Sacred and Profane\Biber - Sacred and Profane - CD2.wav
Peak level 95.8 %
Extraction speed 1.2 X
Range quality 99.9 %
Test CRC BF6C4F81
Copy CRC BF6C4F81
Copy OK
No errors occurred
AccurateRip summary
Track 1 accurately ripped (confidence 8) [0BA4A6B7] (AR v2)
Track 2 accurately ripped (confidence 8) [08FB278E] (AR v2)
Track 3 accurately ripped (confidence 8) [3C56329C] (AR v2)
Track 4 accurately ripped (confidence 8) [FC2D0D85] (AR v2)
Track 5 accurately ripped (confidence 8) [B3F522B6] (AR v2)
Track 6 accurately ripped (confidence 8) [9F248D1F] (AR v2)
Track 7 accurately ripped (confidence 7) [D643CA59] (AR v2)
Track 8 accurately ripped (confidence 7) [13DC6A40] (AR v2)
Track 9 accurately ripped (confidence 8) [C772757C] (AR v2)
Track 10 accurately ripped (confidence 8) [643411D9] (AR v2)
Track 11 accurately ripped (confidence 8) [66194E0E] (AR v2)
Track 12 accurately ripped (confidence 8) [6DE667E3] (AR v2)
Track 13 accurately ripped (confidence 8) [3A989FBD] (AR v2)
Track 14 accurately ripped (confidence 8) [57D1F0CD] (AR v2)
Track 15 accurately ripped (confidence 7) [30B48FFC] (AR v2)
Track 16 accurately ripped (confidence 8) [B430C128] (AR v2)
Track 17 accurately ripped (confidence 8) [2144C0C1] (AR v2)
Track 18 accurately ripped (confidence 8) [24C7574A] (AR v2)
Track 19 accurately ripped (confidence 8) [409A34B7] (AR v2)
Track 20 accurately ripped (confidence 7) [D7EADA49] (AR v2)
All tracks accurately ripped
End of status report
==== Log checksum A1E7F6089F363C532BAFDCD00ABA04B30BA327FCDCEAF37FA95631DBD05E7D3C ====

Лог создания рипа: CD3

Exact Audio Copy V1.0 beta 3 from 29. August 2011
EAC extraction logfile from 2. January 2014, 16:43
Musica Antiqua Koln, Reinhard Goebel / Biber - Sacred and Profane - CD3 - Rosary Sonatas I-VIII
Used drive : HL-DT-STDVDRRW GWA-4164B Adapter: 5 ID: 0
Read mode : Secure
Utilize accurate stream : Yes
Defeat audio cache : Yes
Make use of C2 pointers : No
Read offset correction : 102
Overread into Lead-In and Lead-Out : No
Fill up missing offset samples with silence : Yes
Delete leading and trailing silent blocks : No
Null samples used in CRC calculations : Yes
Used interface : Native Win32 interface for Win NT & 2000
Used output format : User Defined Encoder
Selected bitrate : 896 kBit/s
Quality : High
Add ID3 tag : No
Command line compressor : C:\Program Files\Exact Audio Copy\FLAC\FLAC.EXE
Additional command line options : -V -8 %source%
TOC of the extracted CD
Track | Start | Length | Start sector | End sector
---------------------------------------------------------
1 | 0:00.33 | 4:44.12 | 33 | 21344
2 | 4:44.45 | 5:55.00 | 21345 | 47969
3 | 10:39.45 | 5:36.50 | 47970 | 73219
4 | 16:16.20 | 7:45.00 | 73220 | 108094
5 | 24:01.20 | 7:40.13 | 108095 | 142607
6 | 31:41.33 | 7:09.62 | 142608 | 174844
7 | 38:51.20 | 8:40.13 | 174845 | 213857
8 | 47:31.33 | 6:00.62 | 213858 | 240919
Range status and errors
Selected range
Filename D:\temp\Music\Biber - Sacred and Profane\Biber - Sacred and Profane - CD3.wav
Peak level 77.8 %
Extraction speed 2.6 X
Range quality 100.0 %
Test CRC 308CA03D
Copy CRC 308CA03D
Copy OK
No errors occurred
AccurateRip summary
Track 1 cannot be verified as accurate (confidence 9) [8A86DD80], AccurateRip returned [E8F9AD6B] (AR v2)
Track 2 cannot be verified as accurate (confidence 9) [01E0BE1F], AccurateRip returned [6C6D594C] (AR v2)
Track 3 cannot be verified as accurate (confidence 10) [FC21BBF9], AccurateRip returned [5DB49511] (AR v2)
Track 4 cannot be verified as accurate (confidence 9) [781D62AD], AccurateRip returned [900BF7B8] (AR v2)
Track 5 cannot be verified as accurate (confidence 9) [5A27BD09], AccurateRip returned [3B3506FA] (AR v2)
Track 6 cannot be verified as accurate (confidence 9) [4C78C95E], AccurateRip returned [5B9FF9B7] (AR v2)
Track 7 cannot be verified as accurate (confidence 9) [42897482], AccurateRip returned [437541FA] (AR v2)
Track 8 cannot be verified as accurate (confidence 8) [3EFAD67C], AccurateRip returned [CCA31A4A] (AR v2)
No tracks could be verified as accurate
You may have a different pressing from the one(s) in the database
End of status report
==== Log checksum 2E7CA62BDAF809AD96F1683B06F51B3D813FC1309E34F50DEC4C29C5A420A485 ====

Лог создания рипа: CD4

Exact Audio Copy V1.0 beta 3 from 29. August 2011
EAC extraction logfile from 2. January 2014, 17:32
Musica Antiqua Koln, Reinhard Goebel / Biber - Sacred and Profane - CD4 - Rosary Sonatas IX-XV
Used drive : HL-DT-STDVDRRW GWA-4164B Adapter: 5 ID: 0
Read mode : Secure
Utilize accurate stream : Yes
Defeat audio cache : Yes
Make use of C2 pointers : No
Read offset correction : 102
Overread into Lead-In and Lead-Out : No
Fill up missing offset samples with silence : Yes
Delete leading and trailing silent blocks : No
Null samples used in CRC calculations : Yes
Used interface : Native Win32 interface for Win NT & 2000
Used output format : User Defined Encoder
Selected bitrate : 896 kBit/s
Quality : High
Add ID3 tag : No
Command line compressor : C:\Program Files\Exact Audio Copy\FLAC\FLAC.EXE
Additional command line options : -V -8 %source%
TOC of the extracted CD
Track | Start | Length | Start sector | End sector
---------------------------------------------------------
1 | 0:00.33 | 5:52.17 | 33 | 26449
2 | 5:52.50 | 8:16.55 | 26450 | 63704
3 | 14:09.30 | 6:32.50 | 63705 | 93154
4 | 20:42.05 | 7:41.48 | 93155 | 127777
5 | 28:23.53 | 7:07.00 | 127778 | 159802
6 | 35:30.53 | 8:08.20 | 159803 | 196422
7 | 43:38.73 | 9:46.50 | 196423 | 240422
8 | 53:25.48 | 6:42.00 | 240423 | 270572
Range status and errors
Selected range
Filename D:\temp\Music\Biber - Sacred and Profane\Biber - Sacred and Profane - CD4.wav
Peak level 88.7 %
Extraction speed 3.4 X
Range quality 100.0 %
Test CRC F146E890
Copy CRC F146E890
Copy OK
No errors occurred
AccurateRip summary
Track 1 not present in database
Track 2 not present in database
Track 3 not present in database
Track 4 not present in database
Track 5 not present in database
Track 6 not present in database
Track 7 not present in database
Track 8 not present in database
None of the tracks are present in the AccurateRip database
End of status report
==== Log checksum 07613C2226645A065A1CAA4CCAA856823A1DC8578A550C760F6423B4FF749104 ====

Лог создания рипа: CD5

Exact Audio Copy V1.0 beta 3 from 29. August 2011
EAC extraction logfile from 30. January 2014, 18:02
Musica Antiqua Koln, Reinhard Goebel / Biber - Sacred and Profane - CD5 - Mensa sonora
Used drive : HL-DT-STDVDRRW GWA-4164B Adapter: 5 ID: 0
Read mode : Secure
Utilize accurate stream : Yes
Defeat audio cache : Yes
Make use of C2 pointers : No
Read offset correction : 102
Overread into Lead-In and Lead-Out : No
Fill up missing offset samples with silence : Yes
Delete leading and trailing silent blocks : No
Null samples used in CRC calculations : Yes
Used interface : Native Win32 interface for Win NT & 2000
Used output format : User Defined Encoder
Selected bitrate : 896 kBit/s
Quality : High
Add ID3 tag : No
Command line compressor : C:\Program Files\Exact Audio Copy\FLAC\FLAC.EXE
Additional command line options : -V -8 %source%
TOC of the extracted CD
Track | Start | Length | Start sector | End sector
---------------------------------------------------------
1 | 0:00.00 | 1:12.55 | 0 | 5454
2 | 1:12.55 | 2:27.53 | 5455 | 16532
3 | 3:40.33 | 1:10.69 | 16533 | 21851
4 | 4:51.27 | 1:27.06 | 21852 | 28382
5 | 6:18.33 | 1:14.14 | 28383 | 33946
6 | 7:32.47 | 2:08.18 | 33947 | 43564
7 | 9:40.65 | 0:26.35 | 43565 | 45549
8 | 10:07.25 | 2:09.42 | 45550 | 55266
9 | 12:16.67 | 1:54.64 | 55267 | 63880
10 | 14:11.56 | 0:43.61 | 63881 | 67166
11 | 14:55.42 | 1:20.13 | 67167 | 73179
12 | 16:15.55 | 0:41.47 | 73180 | 76301
13 | 16:57.27 | 1:25.25 | 76302 | 82701
14 | 18:22.52 | 2:20.50 | 82702 | 93251
15 | 20:43.27 | 0:45.60 | 93252 | 96686
16 | 21:29.12 | 4:22.30 | 96687 | 116366
17 | 25:51.42 | 0:47.40 | 116367 | 119931
18 | 26:39.07 | 2:10.63 | 119932 | 129744
19 | 28:49.70 | 1:32.37 | 129745 | 136681
20 | 30:22.32 | 0:38.73 | 136682 | 139604
21 | 31:01.30 | 1:13.64 | 139605 | 145143
22 | 32:15.19 | 0:37.68 | 145144 | 147986
23 | 32:53.12 | 0:47.35 | 147987 | 151546
24 | 33:40.47 | 0:35.20 | 151547 | 154191
25 | 34:15.67 | 0:40.13 | 154192 | 157204
26 | 34:56.05 | 2:20.70 | 157205 | 167774
27 | 37:17.00 | 1:21.65 | 167775 | 173914
28 | 38:38.65 | 1:55.05 | 173915 | 182544
29 | 40:33.70 | 1:03.64 | 182545 | 187333
30 | 41:37.59 | 0:31.05 | 187334 | 189663
31 | 42:08.64 | 2:20.33 | 189664 | 200196
32 | 44:29.22 | 1:19.10 | 200197 | 206131
33 | 45:48.32 | 1:03.23 | 206132 | 210879
34 | 46:51.55 | 1:09.50 | 210880 | 216104
35 | 48:01.30 | 0:33.02 | 216105 | 218581
36 | 48:34.32 | 0:54.65 | 218582 | 222696
37 | 49:29.22 | 0:52.45 | 222697 | 226641
38 | 50:21.67 | 0:58.40 | 226642 | 231031
39 | 51:20.32 | 0:56.30 | 231032 | 235261
40 | 52:16.62 | 0:41.35 | 235262 | 238371
41 | 52:58.22 | 0:38.25 | 238372 | 241246
42 | 53:36.47 | 1:22.10 | 241247 | 247406
43 | 54:58.57 | 0:42.25 | 247407 | 250581
44 | 55:41.07 | 0:41.40 | 250582 | 253696
45 | 56:22.47 | 0:51.40 | 253697 | 257561
46 | 57:14.12 | 4:04.68 | 257562 | 275929
47 | 61:19.05 | 0:31.39 | 275930 | 278293
Range status and errors
Selected range
Filename D:\temp\Music\Biber - Sacred and Profane\Biber - Sacred and Profane - CD5.wav
Peak level 88.4 %
Extraction speed 3.0 X
Range quality 100.0 %
Test CRC 1126B0AC
Copy CRC 1126B0AC
Copy OK
No errors occurred
AccurateRip summary
Track 1 not present in database
Track 2 not present in database
Track 3 not present in database
Track 4 not present in database
Track 5 not present in database
Track 6 not present in database
Track 7 not present in database
Track 8 not present in database
Track 9 not present in database
Track 10 not present in database
Track 11 not present in database
Track 12 not present in database
Track 13 not present in database
Track 14 not present in database
Track 15 not present in database
Track 16 not present in database
Track 17 not present in database
Track 18 not present in database
Track 19 not present in database
Track 20 not present in database
Track 21 not present in database
Track 22 not present in database
Track 23 not present in database
Track 24 not present in database
Track 25 not present in database
Track 26 not present in database
Track 27 not present in database
Track 28 not present in database
Track 29 not present in database
Track 30 not present in database
Track 31 not present in database
Track 32 not present in database
Track 33 not present in database
Track 34 not present in database
Track 35 not present in database
Track 36 not present in database
Track 37 not present in database
Track 38 not present in database
Track 39 not present in database
Track 40 not present in database
Track 41 not present in database
Track 42 not present in database
Track 43 not present in database
Track 44 not present in database
Track 45 not present in database
Track 46 not present in database
Track 47 not present in database
None of the tracks are present in the AccurateRip database
End of status report
==== Log checksum B1B179E6107EEF36B338DF823DBF852E94BF928A64C7ECEFCBA1E7F38D3E0864 ====

Лог создания рипа: CD6

Exact Audio Copy V1.0 beta 3 from 29. August 2011
EAC extraction logfile from 31. January 2014, 17:22
Musica Antiqua Koln, Reinhard Goebel / Biber - Sacred and Profane - CD6 - Harmonia artificioso-ariosa. Partia I-IV
Used drive : HL-DT-STDVDRRW GWA-4164B Adapter: 5 ID: 0
Read mode : Secure
Utilize accurate stream : Yes
Defeat audio cache : Yes
Make use of C2 pointers : No
Read offset correction : 102
Overread into Lead-In and Lead-Out : No
Fill up missing offset samples with silence : Yes
Delete leading and trailing silent blocks : No
Null samples used in CRC calculations : Yes
Used interface : Native Win32 interface for Win NT & 2000
Used output format : User Defined Encoder
Selected bitrate : 896 kBit/s
Quality : High
Add ID3 tag : No
Command line compressor : C:\Program Files\Exact Audio Copy\FLAC\FLAC.EXE
Additional command line options : -V -8 %source%
TOC of the extracted CD
Track | Start | Length | Start sector | End sector
---------------------------------------------------------
1 | 0:00.00 | 2:40.00 | 0 | 11999
2 | 2:40.00 | 2:44.00 | 12000 | 24299
3 | 5:24.00 | 4:27.00 | 24300 | 44324
4 | 9:51.00 | 2:40.00 | 44325 | 56324
5 | 12:31.00 | 5:16.00 | 56325 | 80024
6 | 17:47.00 | 2:01.00 | 80025 | 89099
7 | 19:48.00 | 4:23.59 | 89100 | 108883
8 | 24:11.59 | 1:05.16 | 108884 | 113774
9 | 25:17.00 | 1:33.00 | 113775 | 120749
10 | 26:50.00 | 1:45.00 | 120750 | 128624
11 | 28:35.00 | 1:22.00 | 128625 | 134774
12 | 29:57.00 | 2:54.00 | 134775 | 147824
13 | 32:51.00 | 1:10.00 | 147825 | 153074
14 | 34:01.00 | 0:58.00 | 153075 | 157424
15 | 34:59.00 | 0:35.00 | 157425 | 160049
16 | 35:34.00 | 3:40.00 | 160050 | 176549
17 | 39:14.00 | 2:26.00 | 176550 | 187499
18 | 41:40.00 | 2:24.00 | 187500 | 198299
19 | 44:04.00 | 1:02.00 | 198300 | 202949
20 | 45:06.00 | 0:50.00 | 202950 | 206699
21 | 45:56.00 | 0:58.08 | 206700 | 211057
22 | 46:54.08 | 1:26.47 | 211058 | 217554
23 | 48:20.55 | 0:25.20 | 217555 | 219449
Range status and errors
Selected range
Filename D:\temp\Music\Biber - Sacred and Profane\Biber - Sacred and Profane - CD6.wav
Peak level 97.5 %
Extraction speed 3.4 X
Range quality 100.0 %
Test CRC 61E91D0E
Copy CRC 61E91D0E
Copy OK
No errors occurred
AccurateRip summary
Track 1 not present in database
Track 2 not present in database
Track 3 not present in database
Track 4 not present in database
Track 5 not present in database
Track 6 not present in database
Track 7 not present in database
Track 8 not present in database
Track 9 not present in database
Track 10 not present in database
Track 11 not present in database
Track 12 not present in database
Track 13 not present in database
Track 14 not present in database
Track 15 not present in database
Track 16 not present in database
Track 17 not present in database
Track 18 not present in database
Track 19 not present in database
Track 20 not present in database
Track 21 not present in database
Track 22 not present in database
Track 23 not present in database
None of the tracks are present in the AccurateRip database
End of status report
==== Log checksum A48AF4867F8055D3852D6D3E47D4FA7FE54396D9B890B26A37E524CB73CC2D36 ====

Лог создания рипа: CD7

Exact Audio Copy V1.0 beta 3 from 29. August 2011
EAC extraction logfile from 31. January 2014, 18:30
Musica Antiqua Koln, Reinhard Goebel / Biber - Sacred and Profane - CD7 - Harmonia artificioso-ariosa. Partia V-VII
Used drive : HL-DT-STDVDRRW GWA-4164B Adapter: 5 ID: 0
Read mode : Secure
Utilize accurate stream : Yes
Defeat audio cache : Yes
Make use of C2 pointers : No
Read offset correction : 102
Overread into Lead-In and Lead-Out : No
Fill up missing offset samples with silence : Yes
Delete leading and trailing silent blocks : No
Null samples used in CRC calculations : Yes
Used interface : Native Win32 interface for Win NT & 2000
Used output format : User Defined Encoder
Selected bitrate : 896 kBit/s
Quality : High
Add ID3 tag : No
Command line compressor : C:\Program Files\Exact Audio Copy\FLAC\FLAC.EXE
Additional command line options : -V -8 %source%
TOC of the extracted CD
Track | Start | Length | Start sector | End sector
---------------------------------------------------------
1 | 0:00.00 | 1:17.48 | 0 | 5822
2 | 1:17.48 | 1:45.62 | 5823 | 13759
3 | 3:03.35 | 1:01.36 | 13760 | 18370
4 | 4:04.71 | 0:57.35 | 18371 | 22680
5 | 5:02.31 | 6:05.40 | 22681 | 50095
6 | 11:07.71 | 2:30.22 | 50096 | 61367
7 | 13:38.18 | 13:53.68 | 61368 | 123910
8 | 27:32.11 | 1:31.60 | 123911 | 130795
9 | 29:03.71 | 2:42.01 | 130796 | 142946
10 | 31:45.72 | 2:29.45 | 142947 | 154166
11 | 34:15.42 | 1:57.66 | 154167 | 163007
12 | 36:13.33 | 2:14.29 | 163008 | 173086
13 | 38:27.62 | 2:31.25 | 173087 | 184436
14 | 40:59.12 | 0:50.43 | 184437 | 188229
15 | 41:49.55 | 7:03.17 | 188230 | 219971
Range status and errors
Selected range
Filename D:\temp\Music\Biber - Sacred and Profane\Biber - Sacred and Profane - CD7.wav
Peak level 97.1 %
Extraction speed 1.9 X
Range quality 100.0 %
Test CRC F705928A
Copy CRC F705928A
Copy OK
No errors occurred
AccurateRip summary
Track 1 accurately ripped (confidence 12) [470D7E10] (AR v2)
Track 2 accurately ripped (confidence 12) [A97AECFD] (AR v2)
Track 3 accurately ripped (confidence 12) [5716D737] (AR v2)
Track 4 accurately ripped (confidence 12) [80D43E1E] (AR v2)
Track 5 accurately ripped (confidence 12) [A2C670DF] (AR v2)
Track 6 accurately ripped (confidence 12) [EEDEDF5C] (AR v2)
Track 7 accurately ripped (confidence 11) [53012D89] (AR v2)
Track 8 accurately ripped (confidence 12) [9B87ED77] (AR v2)
Track 9 accurately ripped (confidence 12) [6E5B73F2] (AR v2)
Track 10 accurately ripped (confidence 12) [5DC1E4BB] (AR v2)
Track 11 accurately ripped (confidence 12) [8BBE0774] (AR v2)
Track 12 accurately ripped (confidence 12) [F3CBB253] (AR v2)
Track 13 accurately ripped (confidence 12) [9A6B6B67] (AR v2)
Track 14 accurately ripped (confidence 12) [A724E77E] (AR v2)
Track 15 accurately ripped (confidence 12) [4D5FF187] (AR v2)
All tracks accurately ripped
End of status report
==== Log checksum 595EE91BC199A94F5315E65E32991A1A57D8CB85822DF2DD40A6B4224239A7B7 ====
[teatrix.ru].t18258.torrent 
Торрент: Зарегистрирован [ 2016-03-17 00:40 ] · EABF4E78353A40703DC756D6FEA8B35024D9ADFC

Скачать .torrent

Скачать

26 KB

Статус: проверено
Скачан: 1 раз
Размер: 2.06 GB
terms.php



Быстрый ответ

Имя:

      
Для отправки сообщений необходимо включить JavaScript
Показать сообщения:    

Текущее время: 19-Янв 22:16

Часовой пояс: UTC + 3


Вы можете начинать темы
Вы можете отвечать на сообщения
Вы не можете редактировать свои сообщения
Вы не можете удалять свои сообщения
Вы не можете голосовать в опросах
Вы не можете прикреплять файлы к сообщениям
Вы можете скачивать файлы