Мелодии Дунаевского (Эрик Пырьев) [1963, Док. фильм, SATRip]


Статистика раздачи [Обновить пиров]
Размер:  480 MB   |    Зарегистрирован:  8 месяцев 24 дня   |    Скачан:  0 раз

Полного источника не было: Никогда

 
   
 
 
 

[Цитировать]

Мелодии Дунаевского
Дата/Год выпуска: 1963
Страна: СССР
Жанр: Док. фильм
Продолжительность: 01:12:44
Перевод: Не требуется
Русские субтитры: нет
Оригинальная аудиодорожка: русский
Режиссер: Эрик Пырьев
Телеканал: "Время"
Описание: Киномонография о творчестве композитора Исаака Дунаевского, имевшая широкий зрительский успех и одобрение тогдашней критики. Картина вышла в прокат в самом начале 1964 года, а затем еще много лет демонстрировалась по ЦТ. Кстати, уже в конце того же 1964 года из нее вырезали "дорогого Никиту Сергеича", но потом вернули на место. Это единственная режиссерская работа рано ушедшего из жизни Эрика Пырьева, сына Ивана Александровича от его первой жены Ады Войцик (он остался в истории кинематографии еще и как исполнитель роли юного Ивана Грозного в фильме Сергея Эйзенштейна).
Картина снималась уже после смерти композитора, но еще были живы те, кто его близко знал и с ним работал. О Дунаевском вспоминают Григорий Александров, Николай Черкасов, Иван Пырьев, Василий Лебедев-Кумач, Михаил Матусовский и Григорий Ярон, который показывает кусочек своей роли из легендарного спектакля "Женихи", где он играл с Владимиром Володиным, а также представляет знаменитый терцет из "Белой акации" Московского театра оперетты с Татьяной Шмыгой, Владимиром Шишкиным и Николаем Каширским (последнего именно Ярон пригласил в Москву и с ним же снялся в "Мистере Икс"). От обоих спектаклей, по сути, остались только эти, запечатленные в фильме, фрагменты.
Запись с телеканала "Время".

SATRip от : Твид
Доп. информация: Любезно предоставлено клубом Fenix
Сэмпл: http://multi-up.com/959651
качество: SATRip
формат: AVI
Видео: XviD, 788 kb/s, 640x480, 25 fps, 0.103 bits/pixel
Аудио: 0x0055(MP3) ID'd as MPEG-1 Layer 3, 128 kb/s (2/ch, stereo) CBR, 48000 Hz - Русский одного

MediaInfo

Общее
Полное имя : D:\FILMS\Melodii Dunaevskogo.SAT-rip.by.Твид.fenixclub.avi
Формат : AVI
Формат/Информация : Audio Video Interleave
Размер файла : 480 Мбайт
Продолжительность : 1 ч. 12 м.
Общий поток : 922 Кбит/сек
Видео
Идентификатор : 0
Формат : MPEG-4 Visual
Профиль формата : Advanced Simple@L5
Параметр BVOP формата : 2
Параметр QPel формата : Нет
Параметр GMC формата : Без точки перехода
Параметр матрицы формата : Default (H.263)
Идентификатор кодека : XVID
Идентификатор кодека/Подсказка : XviD
Продолжительность : 1 ч. 12 м.
Битрейт : 785 Кбит/сек
Ширина : 640 пикселей
Высота : 480 пикселей
Соотношение сторон : 4:3
Частота кадров : 25,000 кадров/сек
Цветовое пространство : YUV
Субдискретизация насыщенности : 4:2:0
Битовая глубина : 8 бит
Тип развёртки : Прогрессивная
Метод сжатия : С потерями
Бит/(Пиксели*Кадры) : 0.102
Размер потока : 408 Мбайт (85%)
Библиотека кодирования : XviD 1.1.2 (UTC 2006-11-01)
Аудио
Идентификатор : 1
Формат : MPEG Audio
Версия формата : Version 1
Профиль формата : Layer 3
Режим : Joint stereo
Расширение режима : MS Stereo
Идентификатор кодека : 55
Идентификатор кодека/Подсказка : MP3
Продолжительность : 1 ч. 12 м.
Вид битрейта : Постоянный
Битрейт : 128 Кбит/сек
Каналы : 2 канала
Частота : 48,0 КГц
Метод сжатия : С потерями
Размер потока : 66,6 Мбайт (14%)
Выравнивание : Разделение по промежуткам
Продолжительность промежутка : 40 мс. (1,00 видеокадр)
Время предзагрузки промежутка : 500 мс.

Скриншоты

[teatrix.ru].t18263.torrent 
Торрент: Зарегистрирован [ 2016-03-17 00:40 ] · 6E78166CA33FFF2E8C18ABC0E5ECAE4B048870F1

Скачать .torrent

Скачать

19 KB

Статус: проверено
Скачан: 0 раз
Размер: 480 MB
terms.php



Показать сообщения:    

Текущее время: 10-Дек 11:51

Часовой пояс: UTC + 3


Вы не можете начинать темы
Вы не можете отвечать на сообщения
Вы не можете редактировать свои сообщения
Вы не можете удалять свои сообщения
Вы не можете голосовать в опросах
Вы не можете прикреплять файлы к сообщениям
Вы можете скачивать файлы