(Classical, cello) Петр Чайковский: Вариации на тему рококо; Pezzo capriccioso • Дмитрий Шостакович: Концерт №1 для виолончели с оркестром - Zuill Bailey, San Francisco Ballet Orchestra, Martin West - 2009, FLAC (image+.cue) lossless


Статистика раздачи [Обновить пиров]
Размер:  272 MB   |    Зарегистрирован:  8 месяцев 24 дня   |    Скачан:  2 раза

Полного источника не было: 17 часов

 
   
 
 
 

[Цитировать]

Петр Чайковский: Вариации на тему рококо; Pezzo capriccioso • Дмитрий Шостакович: Концерт №1 для виолончели с оркестром - Zuill Bailey, San Francisco Ballet Orchestra, Martin West
Жанр: Classical, cello
Страна-производитель диска: USA
Год издания диска: 2009
Издатель (лейбл): Telarc
Номер по каталогу: CD-80724
Дата записи: 2007
Аудиокодек: FLAC
Тип рипа: image+.cue
Битрейт аудио: lossless
Продолжительность: 60:36
Источник: собственный рип
Наличие сканов в содержимом раздачи: да
Треклист:
Петр Ильич Чайковский (1840-1893)
[1]-[9] Вариации на тему рококо, Op.33
[10] Pezzo capriccioso in B minor for Cello and Orchestra, Op.62
[11] Nocturne in D minor for Cello and Small Orchestra, Op.19 No.4
Дмитрий Дмитриевич Шостакович (1906-1975)
[12]-[15] Концерт №1 для виолончели с оркестром, Op.107
Исполнители:
Zuill Bailey cello
San Francisco Ballet Orchestra
Martin West
conductor

Лог создания рипа

Exact Audio Copy V1.0 beta 3 from 29. August 2011
EAC extraction logfile from 16. January 2014, 17:36
Zuill Bailey, San Francisco Ballet Orchestra, Martin West / Russian Masterpieces for Cello and Orchestra
Used drive : HL-DT-STDVDRRW GWA-4164B Adapter: 5 ID: 0
Read mode : Secure
Utilize accurate stream : Yes
Defeat audio cache : Yes
Make use of C2 pointers : No
Read offset correction : 102
Overread into Lead-In and Lead-Out : No
Fill up missing offset samples with silence : Yes
Delete leading and trailing silent blocks : No
Null samples used in CRC calculations : Yes
Used interface : Native Win32 interface for Win NT & 2000
Used output format : User Defined Encoder
Selected bitrate : 896 kBit/s
Quality : High
Add ID3 tag : No
Command line compressor : C:\Program Files\Exact Audio Copy\FLAC\FLAC.EXE
Additional command line options : -V -8 %source%
TOC of the extracted CD
Track | Start | Length | Start sector | End sector
---------------------------------------------------------
1 | 0:00.00 | 0:57.59 | 0 | 4333
2 | 0:57.59 | 1:35.22 | 4334 | 11480
3 | 2:33.06 | 0:52.23 | 11481 | 15403
4 | 3:25.29 | 1:13.15 | 15404 | 20893
5 | 4:38.44 | 3:44.29 | 20894 | 37722
6 | 8:22.73 | 1:57.15 | 37723 | 46512
7 | 10:20.13 | 3:37.23 | 46513 | 62810
8 | 13:57.36 | 2:43.25 | 62811 | 75060
9 | 16:40.61 | 2:14.59 | 75061 | 85169
10 | 18:55.45 | 6:39.69 | 85170 | 115163
11 | 25:35.39 | 5:00.64 | 115164 | 137727
12 | 30:36.28 | 6:28.29 | 137728 | 166856
13 | 37:04.57 | 12:32.71 | 166857 | 223327
14 | 49:37.53 | 6:02.45 | 223328 | 250522
15 | 55:40.23 | 4:53.64 | 250523 | 272561
Range status and errors
Selected range
Filename D:\temp\Music\Russian Masterpieces for Cello and Orchestra - Zuill Bailey\Russian Masterpieces for Cello and Orchestra.wav
Peak level 96.6 %
Extraction speed 3.5 X
Range quality 99.9 %
Test CRC 14786B82
Copy CRC 14786B82
Copy OK
No errors occurred
AccurateRip summary
Track 1 cannot be verified as accurate (confidence 4) [439B17A4], AccurateRip returned [7FD4CA80] (AR v2)
Track 2 cannot be verified as accurate (confidence 4) [F24FC8A6], AccurateRip returned [7C5754C2] (AR v2)
Track 3 cannot be verified as accurate (confidence 4) [A5D8BDD5], AccurateRip returned [E544365B] (AR v2)
Track 4 cannot be verified as accurate (confidence 4) [5CC3580A], AccurateRip returned [8FD62744] (AR v2)
Track 5 cannot be verified as accurate (confidence 4) [0C8A27DA], AccurateRip returned [65F337BF] (AR v2)
Track 6 cannot be verified as accurate (confidence 4) [FC5442A1], AccurateRip returned [79C4185A] (AR v2)
Track 7 cannot be verified as accurate (confidence 4) [FE580424], AccurateRip returned [2A13B412] (AR v2)
Track 8 cannot be verified as accurate (confidence 4) [6B6C1FCF], AccurateRip returned [5137D644] (AR v2)
Track 9 cannot be verified as accurate (confidence 4) [E5FAEDB0], AccurateRip returned [623FFF92] (AR v2)
Track 10 cannot be verified as accurate (confidence 4) [52A1F2DE], AccurateRip returned [A2F2AF62] (AR v2)
Track 11 cannot be verified as accurate (confidence 4) [2C19DE6F], AccurateRip returned [01F288BC] (AR v2)
Track 12 cannot be verified as accurate (confidence 4) [606D0108], AccurateRip returned [FCF9AC19] (AR v2)
Track 13 cannot be verified as accurate (confidence 4) [EE22C38D], AccurateRip returned [1C49B702] (AR v2)
Track 14 cannot be verified as accurate (confidence 4) [8D547382], AccurateRip returned [D7CE2443] (AR v2)
Track 15 cannot be verified as accurate (confidence 4) [3A09390D], AccurateRip returned [D98D30B3] (AR v2)
No tracks could be verified as accurate
You may have a different pressing from the one(s) in the database
End of status report
==== Log checksum AD4A1B6EF026C556C83BB28A3BF946C83DC88FDB8F44C1F7DB42C421412FF500 ====
[teatrix.ru].t18268.torrent 
Торрент: Зарегистрирован [ 2016-03-17 00:40 ] · 6D936454AFDFA61F06926593ABC39E6821EF07BE

Скачать .torrent

Скачать

23 KB

Статус: проверено
Скачан: 2 раз
Размер: 272 MB
terms.php



Быстрый ответ

Имя:

      
Для отправки сообщений необходимо включить JavaScript
Показать сообщения:    

Текущее время: 10-Дек 23:31

Часовой пояс: UTC + 3


Вы можете начинать темы
Вы можете отвечать на сообщения
Вы не можете редактировать свои сообщения
Вы не можете удалять свои сообщения
Вы не можете голосовать в опросах
Вы не можете прикреплять файлы к сообщениям
Вы можете скачивать файлы