«Однокашники». Выпуск 17. Татьяна Веденеева [Биографический, VHSRip]


Статистика раздачи [Обновить пиров]
Размер:  1.71 GB   |    Зарегистрирован:  8 месяцев 22 дня   |    Скачан:  0 раз

Полного источника не было: Никогда

 
   
 
 
 

[Цитировать]

Однокашники. Татьяна Веденеева
Год выпуска: 2003
Страна: Россия
Жанр: Биографический
Продолжительность: 0:51:59
Перевод: Не требуется
Русские субтитры: нет
Режиссер: Егор Пирогов
Телеканал: ТВС
Описание: В студии, оформленной под школьный класс, собираются после многолетней разлуки одноклассники, один из которых стал знаменитостью. И ведущий программы Егор Пирогов помогает им вспомнить "школьные годы чудесные"
качество: VHSRip
формат: MP4
Видео: H.264/AVC,720X540 (4:3),4793 Кбит/сек Кбит/сек,50 кадр/сек
Аудио: AAC,126 Кбит/сек,48кГц.2 канала

Скриншоты

MediaInfo

Общее
Формат : MPEG-4
Профиль формата : Base Media / Version 2
Идентификатор кодека : mp42
Размер файла : 1,79 Гбайт
Продолжительность : 51 м.
Режим общего битрейта : Переменный
Общий поток : 4924 Кбит/сек
Дата кодирования : UTC 2014-04-14 15:15:27
Дата пометки : UTC 2014-04-14 19:36:04
Видео
Идентификатор : 1
Формат : AVC
Формат/Информация : Advanced Video Codec
Профиль формата : High@L3.0
Параметр CABAC формата : Да
Параметр ReFrames формата : 4 кадра
Идентификатор кодека : avc1
Идентификатор кодека/Информация : Advanced Video Coding
Продолжительность : 51 м.
Вид битрейта : Переменный
Битрейт : 4793 Кбит/сек
Максимальный битрейт : 10,7 Мбит/сек
Ширина : 720 пикселей
Высота : 540 пикселей
Соотношение сторон : 4:3
Режим частоты кадров : Постоянный
Частота кадров : 50 кадров/сек
Стандарт вещания : PAL
Цветовое пространство : YUV
Субдискретизация насыщенности : 4:2:0
Битовая глубина : 8 бит
Тип развёртки : Прогрессивная
Бит/(Пиксели*Кадры) : 0.493
Размер потока : 1,74 Гбайт (97%)
Язык : English
Дата кодирования : UTC 2014-04-14 15:15:27
Дата пометки : UTC 2014-04-14 19:36:04
Аудио
Идентификатор : 2
Формат : AAC
Формат/Информация : Advanced Audio Codec
Профиль формата : LC
Идентификатор кодека : 40
Продолжительность : 51 м.
Вид битрейта : Переменный
Битрейт : 126 Кбит/сек
Максимальный битрейт : 142 Кбит/сек
Каналы : 2 канала
Расположение каналов : Front: L R
Частота : 48,0 КГц
Метод сжатия : С потерями
Размер потока : 46,8 Мбайт (3%)
Заголовок : PCM 2-кан. 48KHz
Язык : English
Дата кодирования : UTC 2014-04-14 15:15:27
Дата пометки : UTC 2014-04-14 19:36:04
[teatrix.ru].t18272.torrent 
Торрент: Зарегистрирован [ 2016-03-17 00:40 ] · 9526A2BE33272A9A4C18FF18C86D9564FBC83E15

Скачать .torrent

Скачать

18 KB

Статус: проверено
Скачан: 0 раз
Размер: 1.71 GB
terms.php



Быстрый ответ

Имя:

      
Для отправки сообщений необходимо включить JavaScript
Показать сообщения:    

Текущее время: 08-Дек 09:03

Часовой пояс: UTC + 3


Вы можете начинать темы
Вы можете отвечать на сообщения
Вы не можете редактировать свои сообщения
Вы не можете удалять свои сообщения
Вы не можете голосовать в опросах
Вы не можете прикреплять файлы к сообщениям
Вы можете скачивать файлы