(Classical) Ebenhoh - Konzert fur Violoncello und Orchester op.66, ... Klavier, Blaser und Schlagzeug op.69, ... doppeltes Schlagzeug und Orchester op.39 (NTO Tonkгnstlerorchester, Eschwe; RSO Wien, Segerstam) - 2000, FLAC (image+.cue) lossless


Статистика раздачи [Обновить пиров]
Размер:  303 MB   |    Зарегистрирован:  8 месяцев 22 дня   |    Скачан:  0 раз

Полного источника не было: Никогда

 
   
 
 
 

[Цитировать]

Horst Ebenhoh - Konzert fur Violoncello & kleines Orchester op.66, Konzert für Klavier, Bläser und Schlagzeug op.69, Konzert für doppeltes Schlagzeug und Orchester op.39 (NTO Tonkгnstlerorchester, Alfred Eschwe; RSO Wien, Leif Segerstam)
Жанр: Classical
Год издания диска: 2000
Издатель (лейбл): ORF
Номер по каталогу: CD250
Аудиокодек: FLAC
Тип рипа: image+.cue
Битрейт аудио: lossless
Продолжительность: 64’15
Источник: собственный рип
Наличие сканов в содержимом раздачи: да
Треклист и исполнители:
Horst Ebenhöh (geb. 1930)
Konzert für Violoncello und kleines Orchester op.66
01. 1. Satz: Moderato
02. 2. Satz: Andante
03. 3. Satz: Allegro
Ricardo Bru (Violoncello)
NTO Tonkünstlerorchester, Dirigent: Alfred Eschwé

Konzert für Klavier, Bläser und Schlagzeug op.69
04. 1. Satz: Vivo
05. 2. Satz: Andante
06. 3. Satz: Poco presto
Martijn van den Hoek (Klavier)
NTO Tonkünstlerorchester, Conductor: Alfred Eschwé

Konzert für doppeltes Schlagzeug und Orchester op.39
07. 1. Satz: Allegro ma non troppo
08. 2. Satz: Adagio
09. 3. Satz: Allegro
Keiko and Gerald Fromme (Schlagzeug)
RSO Wien, Conductor: Leif Segerstam

LOG EAC

Exact Audio Copy V1.0 beta 3 from 29. August 2011
EAC extraction logfile from 7. March 2014, 11:41
Various / Ebenhoh. Koncert fur Cello, Klavier & Schlagzeug
Used drive : HL-DT-STDVDRAM GH41N Adapter: 1 ID: 0
Read mode : Secure
Utilize accurate stream : Yes
Defeat audio cache : Yes
Make use of C2 pointers : No
Read offset correction : 667
Overread into Lead-In and Lead-Out : No
Fill up missing offset samples with silence : Yes
Delete leading and trailing silent blocks : No
Null samples used in CRC calculations : Yes
Used interface : Installed external ASPI interface
Used output format : User Defined Encoder
Selected bitrate : 192 kBit/s
Quality : High
Add ID3 tag : No
Command line compressor : C:\Program Files\Exact Audio Copy\Flac\flac.exe
Additional command line options : -V -8 -T "Date=%year%" -T "Genre=%genre%" %source%
TOC of the extracted CD
Track | Start | Length | Start sector | End sector
---------------------------------------------------------
1 | 0:00.00 | 6:23.49 | 0 | 28773
2 | 6:23.49 | 6:27.31 | 28774 | 57829
3 | 12:51.05 | 9:58.44 | 57830 | 102723
4 | 22:49.49 | 7:39.48 | 102724 | 137196
5 | 30:29.22 | 4:52.22 | 137197 | 159118
6 | 35:21.44 | 9:15.36 | 159119 | 200779
7 | 44:37.05 | 6:29.41 | 200780 | 229995
8 | 51:06.46 | 6:09.14 | 229996 | 257684
9 | 57:15.60 | 7:03.39 | 257685 | 289448
Range status and errors
Selected range
Filename C:\Program Files\Exact Audio Copy\Flac\Various - Ebenhoh. Koncert fur Cello, Klavier & Schlagzeug.wav
Peak level 98.8 %
Extraction speed 1.9 X
Range quality 100.0 %
Test CRC 19F372EE
Copy CRC 19F372EE
Copy OK
No errors occurred
AccurateRip summary
Track 1 not present in database
Track 2 not present in database
Track 3 not present in database
Track 4 not present in database
Track 5 not present in database
Track 6 not present in database
Track 7 not present in database
Track 8 not present in database
Track 9 not present in database
None of the tracks are present in the AccurateRip database
End of status report
==== Log checksum 6F23D3D89CF75605BF35AA3C598AA6B3E15D44347EDD20439BC1DE41127A93F2 ====
mp3
[teatrix.ru].t18276.torrent 
Торрент: Зарегистрирован [ 2016-03-17 00:39 ] · 81E37BF2ABBF1D8887F6467231DD5FF9D9FAA74F

Скачать .torrent

Скачать

13 KB

Статус: проверено
Скачан: 0 раз
Размер: 303 MB
terms.php



Быстрый ответ

Имя:

      
Для отправки сообщений необходимо включить JavaScript
Показать сообщения:    

Текущее время: 08-Дек 08:59

Часовой пояс: UTC + 3


Вы можете начинать темы
Вы можете отвечать на сообщения
Вы не можете редактировать свои сообщения
Вы не можете удалять свои сообщения
Вы не можете голосовать в опросах
Вы не можете прикреплять файлы к сообщениям
Вы можете скачивать файлы