Легкое дыхание Ивана Бунина (Никита Михалков) [2013, история, TVRip]


Статистика раздачи [Обновить пиров]
Размер:  900 MB   |    Зарегистрирован:  8 месяцев 23 дня   |    Скачан:  0 раз

Полного источника не было: Никогда

 
   
 
 
 

[Цитировать]

Легкое дыхание ивана Бунина
Дата/Год выпуска: 2013
Страна: Россия
Жанр: история
Продолжительность: 01:05:07
Перевод: Не требуется
Режиссер: Никита Михалков
Телеканал: Россия1
Описание: В своем фильме-исследовании Никита Михалков анализирует книгу Ивана Алексеевича Бунина "Окаянные дни" - его дневниковые записи, которые он вел во время революции1917 года в России, до своего отъезда из страны.
Никита Михалков проводит параллели с сегодняшним днем, размышляет о судьбе России, о русском характере, о причинах случившейся в 1917 году революции и о том, что такое революция для России.
Никита Михалков расскажет также о работе над своим новым фильмом "Солнечный удар", который поставлен по произведениям Ивана Алексеевича Бунина.
Сэмпл: http://sendfile.su/956760
Отчет MediaInfo

скрытый текст

Общее
Полное имя : D:\запись\Легкое дыхание ивана Бунина.AVI
Формат : AVI
Формат/Информация : Audio Video Interleave
Размер файла : 900 Мбайт
Продолжительность : 1 ч. 5 м.
Общий поток : 1933 Кбит/сек
Видео
Идентификатор : 0
Формат : MPEG-4 Visual
Профиль формата : Advanced Simple@L5
Параметр BVOP формата : 2
Параметр QPel формата : Нет
Параметр GMC формата : Без точки перехода
Параметр матрицы формата : Default (H.263)
Режим смешивания : Сжатый битовый поток
Идентификатор кодека : XVID
Идентификатор кодека/Подсказка : XviD
Продолжительность : 1 ч. 5 м.
Битрейт : 1798 Кбит/сек
Ширина : 704 пикселя
Высота : 528 пикселей
Соотношение сторон : 4:3
Частота кадров : 25,000 кадров/сек
Цветовое пространство : YUV
Субдискретизация насыщенности : 4:2:0
Битовая глубина : 8 бит
Тип развёртки : Прогрессивная
Метод сжатия : С потерями
Бит/(Пиксели*Кадры) : 0.193
Размер потока : 837 Мбайт (93%)
Библиотека кодирования : XviD 1.2.0.dev47 (UTC 2006-11-01)
Аудио
Идентификатор : 1
Формат : MPEG Audio
Версия формата : Version 1
Профиль формата : Layer 3
Режим : Joint stereo
Расширение режима : MS Stereo
Идентификатор кодека : 55
Идентификатор кодека/Подсказка : MP3
Продолжительность : 1 ч. 5 м.
Вид битрейта : Постоянный
Битрейт : 128 Кбит/сек
Каналы : 2 канала
Частота : 44,1 КГц
Метод сжатия : С потерями
Размер потока : 59,6 Мбайт (7%)
Выравнивание : Разделение по промежуткам
Продолжительность промежутка : 1000 мс. (24,99 видеокадров)
качество: TVRip
формат: AVI
Видео: 704x528 (1.33:1),XviD MPEG-4,1797 kbps avg,0.19 bit/pixel
Аудио: 128.00 kbps avg,MPEG Layer 3,2 ch,44.100 kHz

Скриншоты

,





[teatrix.ru].t18277.torrent 
Торрент: Зарегистрирован [ 2016-03-17 00:39 ] · 3BB25B536E7C8146DB2B57412B6F9598CB3B64F3

Скачать .torrent

Скачать

18 KB

Статус: проверено
Скачан: 0 раз
Размер: 900 MB
terms.php



Показать сообщения:    

Текущее время: 10-Дек 00:17

Часовой пояс: UTC + 3


Вы не можете начинать темы
Вы не можете отвечать на сообщения
Вы не можете редактировать свои сообщения
Вы не можете удалять свои сообщения
Вы не можете голосовать в опросах
Вы не можете прикреплять файлы к сообщениям
Вы можете скачивать файлы