(Classical) [LP] [24/192] Georges Bizet/Жорж Бизе-Родион Щедрин - Кармен-сюита (Г.Рождественский и оркестр Большого театра СССР) - 1968, FLAC (image+.cue)


Статистика раздачи [Обновить пиров]
Размер:  1.63 GB   |    Зарегистрирован:  10 месяцев 3 дня   |    Скачан:  0 раз

Полного источника не было: Никогда

 
   
 
 
 

[Цитировать]

Жорж Бизе-Родион ЩедринКармен-сюита (Г.Рождественский и оркестр Большого театра СССР)
Жанр: Classical
Год выпуска: 1968
Лейбл: Мелодия С-01659-60
Страна-производитель: СССР
Аудио кодек: FLAC
Тип рипа: image+.cue
Формат записи: 24/192
Формат раздачи: 24/192
Продолжительность: 00:41:31
Треклист:
Жорж Бизе-Родион Щедрин - Кармен-сюита
A1 - Вступление
A2 - Танец
A3 - Первое интермеццо
A4 - Развод караула
A5 - Выход Кармен и хабанера
A6 - Сцена
A7 - Второе интермеццо
A8 - Болеро
A9 - Тореро
B1 - Тореро и Кармен
B2 - Адажио
B3 - Гадание
B4 - Финал
Оркестр: Струнная группа оркестра Большого театра СССР
Солисты на ударных инструментах: A.Огородников, О.Буданков, Л.Редькин, А.Антуфьев, В.Федин
Дирижер: Геннадий Рождественский
Звукорежиссер: Игорь Вепринцев

Technical details

Источник оцифровки: оцифровано Crimson74
Код класса состояния винила: Good
Устройство воспроизведения: Technics SP-10 MK2
Головка звукоснимателя: Audio Technica ML180
Предварительный усилитель: Kora 3T SE MM
АЦП: Edirol R-44
Обработка: удалены щелчки в паузах

DR

foobar2000 1.1.8 / Dynamic Range Meter 1.1.1
log date: 2014-03-22 13:27:28
--------------------------------------------------------------------------------
Analyzed: G.Rozhdestvensky-BTO / Жорж Бизе-Родион Щедрин 'Кармен-сюита'
--------------------------------------------------------------------------------
DR Peak RMS Duration Track
--------------------------------------------------------------------------------
DR13 -4.48 dB -26.08 dB 1:14 01-Вступление
DR11 -3.56 dB -18.07 dB 2:09 02-Танец
DR14 -3.77 dB -22.31 dB 0:53 03-Первое интермеццо
DR14 -5.25 dB -25.07 dB 1:51 04-Развод караула
DR14 -2.93 dB -23.09 dB 2:57 05-Выход Кармен и хабанера
DR13 -3.75 dB -23.09 dB 5:55 06-Сцена
DR12 -4.56 dB -24.93 dB 2:03 07-Второе интермеццо
DR11 -4.01 dB -19.56 dB 1:05 08-Болеро
DR11 -3.19 dB -18.85 dB 2:50 09-Тореро
DR16 -7.55 dB -30.91 dB 4:42 10-Тореро и Кармен
DR12 -5.05 dB -21.43 dB 5:05 11-Адажио
DR12 -4.12 dB -22.39 dB 4:49 12-Финал
--------------------------------------------------------------------------------
Number of tracks: 12
Official DR value: DR13
Samplerate: 192000 Hz
Channels: 2
Bits per sample: 24
Bitrate: 5339 kbps
Codec: FLAC
================================================================================
В файле семплов фрагменты треков A9 и B1. И не забудьте распаковать флак.

Спектр

АЧХ

Уровень


Большое спасибо VH за оформление раздачи.
[teatrix.ru].t18279.torrent 
Торрент: Зарегистрирован [ 2016-03-17 00:39 ] · BF4236C542D987860D36E05A892C3072B830CF22

Скачать .torrent

Скачать

17 KB

Статус: проверено
Скачан: 0 раз
Размер: 1.63 GB
terms.php



Быстрый ответ

Имя:

      
Для отправки сообщений необходимо включить JavaScript
Показать сообщения:    

Текущее время: 20-Янв 16:52

Часовой пояс: UTC + 3


Вы можете начинать темы
Вы можете отвечать на сообщения
Вы не можете редактировать свои сообщения
Вы не можете удалять свои сообщения
Вы не можете голосовать в опросах
Вы не можете прикреплять файлы к сообщениям
Вы можете скачивать файлы