(Classical, ECM New Series) Victor Kissine (Виктор Кисин) - Between Two Waves / Gidon Kremer, Andrius Zlabys, Roman Kofman & Kremerata Baltica - 2013, FLAC (tracks+.cue) lossless


Статистика раздачи [Обновить пиров]
Размер:  221 MB   |    Зарегистрирован:  8 месяцев 23 дня   |    Скачан:  0 раз

Полного источника не было: Никогда

 
   
 
 
 

[Цитировать]

Victor Kissine - Between Two Waves / Gidon Kremer, Andrius Zlabys, Roman Kofman & Kremerata Baltica
Жанр: Concerto, Chamber Music
Страна-производитель диска: Germany
Год издания диска: 2013
Издатель (лейбл): ECM New Series
Номер по каталогу: 2312
Дата записи: July 2011
Аудиокодек: FLAC
Тип рипа: tracks+.cue
Битрейт аудио: lossless
Продолжительность: 01:08:48
Источник: скачано с
сайт-источник/ник/другое: All thanks goes to the original releaser
Наличие сканов в содержимом раздачи: да
Виктор Романович Кисин (1953)
Треклист:
01. Between Two Waves - 21:35
Concerto for piano and string orchestra (2006/2008)
02. Duo (after Osip Mandelstam) - 24:25
for viola and violoncello (1998/2011)
03. Barcarola - 22:48
for violin solo, string orchestra and percussion (2007)
Исполнители:
Gidon Kremer - violin (Barcarola)
Daniil Grishin - viola (Duo)
Giedrė Dirvanauskaitė - violoncello (Duo)
Andrius Žlabys - piano (Between Two Waves)
Andrei Pushkarev - percussion (Barcarola)
Kremerata Baltica (Between Two Waves, Barcarola)
Roman Kofman - conductor (Between Two Waves)

Лог создания рипа

Exact Audio Copy V1.0 beta 3 from 29. August 2011
EAC extraction logfile from 3. May 2013, 18:36
Victor Kissine / Between Two Waves
Used drive : Optiarc DVD RW AD-7240S Adapter: 3 ID: 1
Read mode : Secure
Utilize accurate stream : Yes
Defeat audio cache : Yes
Make use of C2 pointers : No
Read offset correction : 48
Overread into Lead-In and Lead-Out : No
Fill up missing offset samples with silence : Yes
Delete leading and trailing silent blocks : No
Null samples used in CRC calculations : Yes
Used interface : Installed external ASPI interface
Gap handling : Appended to previous track
Used output format : User Defined Encoder
Selected bitrate : 896 kBit/s
Quality : High
Add ID3 tag : No
Command line compressor : C:\Program Files\Exact Audio Copy\Flac\flac.exe
Additional command line options : -8 -V -T "ARTIST=%artist%" -T "TITLE=%title%" -T "ALBUM=%albumtitle%" -T "DATE=%year%" -T "TRACKNUMBER=%tracknr%" -T "TOTALTRACKS=%numtracks%" -T "GENRE=%genre%" -T "ALBUMARTIST=%albumartist%" -T "ALBUM ARTIST=%albumartist%" -T "COMMENT=EAC Secure Mode, Test & Copy, AccurateRip, FLAC -8" %source%
TOC of the extracted CD
Track | Start | Length | Start sector | End sector
---------------------------------------------------------
1 | 0:00.00 | 21:35.19 | 0 | 97143
2 | 21:35.19 | 24:25.09 | 97144 | 207027
3 | 46:00.28 | 22:48.46 | 207028 | 309673
Track 1
Filename F:\AneL\MY RIPS\01 - Between Two Waves.wav
Pre-gap length 0:00:02.00
Peak level 98.0 %
Extraction speed 3.4 X
Track quality 100.0 %
Test CRC 972DBE4E
Copy CRC 972DBE4E
Track not present in AccurateRip database
Copy OK
Track 2
Filename F:\AneL\MY RIPS\02 - Duo.wav
Peak level 46.9 %
Extraction speed 4.4 X
Track quality 99.9 %
Test CRC 85ADF105
Copy CRC 85ADF105
Track not present in AccurateRip database
Copy OK
Track 3
Filename F:\AneL\MY RIPS\03 - Barcarola.wav
Peak level 98.1 %
Extraction speed 5.5 X
Track quality 100.0 %
Test CRC C9B982FC
Copy CRC C9B982FC
Track not present in AccurateRip database
Copy OK
None of the tracks are present in the AccurateRip database
No errors occurred
End of status report
==== Log checksum A04D8F3A3CF0CFFB31CB6E64D8EA70E4FFEBC337C058F0DFD8C50927504EB744 ====

Содержание индексной карты (.CUE)

REM GENRE Classical
REM DATE 2013
REM DISCID 26102003
REM COMMENT "ExactAudioCopy v1.0b3"
PERFORMER "Victor Kissine"
TITLE "Between Two Waves"
FILE "01 - Between Two Waves.wav" WAVE
TRACK 01 AUDIO
TITLE "Between Two Waves"
PERFORMER "Victor Kissine"
FLAGS DCP
INDEX 01 00:00:00
FILE "02 - Duo.wav" WAVE
TRACK 02 AUDIO
TITLE "Duo"
PERFORMER "Victor Kissine"
FLAGS DCP
INDEX 01 00:00:00
FILE "03 - Barcarola.wav" WAVE
TRACK 03 AUDIO
TITLE "Barcarola"
PERFORMER "Victor Kissine"
FLAGS DCP
INDEX 01 00:00:00

Dynamic Range Meter

foobar2000 1.2.2 / Dynamic Range Meter 1.1.1
log date: 2014-03-22 16:51:27
--------------------------------------------------------------------------------
Analyzed: Victor Kissine / Between Two Waves
--------------------------------------------------------------------------------
DR Peak RMS Duration Track
--------------------------------------------------------------------------------
DR20 -0.17 dB -27.70 dB 21:35 01-Between Two Waves
DR20 -6.56 dB -35.48 dB 24:25 02-Duo
DR19 -0.16 dB -30.02 dB 22:49 03-Barcarola
--------------------------------------------------------------------------------
Number of tracks: 3
Official DR value: DR20
Samplerate: 44100 Hz
Channels: 2
Bits per sample: 16
Bitrate: 480 kbps
Codec: FLAC
================================================================================
Доп. информация: http://victorkissine.com/victorkissine.com/Victor_Kissine.html
[teatrix.ru].t18280.torrent 
Торрент: Зарегистрирован [ 2016-03-17 00:39 ] · BF0D897BAC68540E1BD8247DB2FB49B52168D409

Скачать .torrent

Скачать

19 KB

Статус: проверено
Скачан: 0 раз
Размер: 221 MB
terms.php



Быстрый ответ

Имя:

      
Для отправки сообщений необходимо включить JavaScript
Показать сообщения:    

Текущее время: 09-Дек 22:26

Часовой пояс: UTC + 3


Вы можете начинать темы
Вы можете отвечать на сообщения
Вы не можете редактировать свои сообщения
Вы не можете удалять свои сообщения
Вы не можете голосовать в опросах
Вы не можете прикреплять файлы к сообщениям
Вы можете скачивать файлы