(Classical) Handel · Mozart · Mosel - Timotheus oder die Gewalt der Musik - Invernizzi, Güra (Gura), Finley; Singverein der Gesellschaft der Musikfreunde in Wien, Concentus Musicus Wien, Nikolaus Harnoncourt - 2CD - 2013, FLAC (image+.cue) lossl


Статистика раздачи [Обновить пиров]
Размер:  463 MB   |    Зарегистрирован:  8 месяцев 25 дней   |    Скачан:  0 раз

Полного источника не было: Никогда

 
   
 
 
 

[Цитировать]

Handel · Mozart · Mosel - Timotheus oder die Gewalt der Musik - Invernizzi, Güra, Finley; Singverein der Gesellschaft der Musikfreunde in Wien, Concentus Musicus Wien, Nikolaus Harnoncourt
Жанр: Classical
Год издания диска: 2013
Издатель (лейбл): Sony Classical
Дата записи: 2012
Аудиокодек: FLAC
Тип рипа: image+.cue
Битрейт аудио: lossless
Продолжительность: 103:25
Источник: собственный рип
Наличие сканов в содержимом раздачи: да
Треклист:
Georg Friedrich Handel (1685-1759)
Alexander's Feast or the Power of Musick
arranged by Wolfgang Amadeus Mozart (1756-1791)
Timotheus oder die Gewalt der Musik
extended version of the 1812 Vienna performance by Ignaz Franz von Mosel (1772-1844)
CD1
[1]-[20] Part I
CD2
[1]-[9] Part II
Ода Alexander's Feast or the Power of Musick была создана Генделем в 1735-36 гг. на стихи Джона Драйдена (John Dryden). В 1766 г. Карл Вильгельм Рамлер (Carl Wilhelm Ramler) перевел слова оды на немецкий и назвал ее Timotheus oder die Gewalt der Musik, полагая, что главным ее героем является певец Тимотеус. В 1790 Моцарт адаптировал музыку оды для концерта в Вене, использовав немецкий текст Рамлера. 29 ноября 1812 г. опять в Вене состоялся концерт, на котором был исполнен моцартовский вариант оды. Дирижировал Игнац Франц фон Мозель, который несколько изменил оркестровку. Партитура с изменениями сохранилась и была использована через двести лет Николаусом Арнонкуром в концертах в венском Musikverein 28-29 ноября 2012 г. Запись с этих концертов здесь и представлена.
Исполнители:
Roberta Invernizzi soprano
Werner Güra tenor
Gerald Finley bass
Singverein der Gesellschaft der Musikfreunde in Wien
Concentus Musicus Wien
Nikolaus Harnoncourt

Лог создания рипа: CD1

Exact Audio Copy V1.0 beta 3 from 29. August 2011
EAC extraction logfile from 17. February 2014, 15:40
Concentus Musicus Wien, Singverein der Gesellschaft der Musikfreunde in Wien, Nikolaus Harnoncourt / Handel/Mozart: Timotheus oder die Gewalt der Musik - CD1
Used drive : HL-DT-STDVDRRW GWA-4164B Adapter: 5 ID: 0
Read mode : Secure
Utilize accurate stream : Yes
Defeat audio cache : Yes
Make use of C2 pointers : No
Read offset correction : 102
Overread into Lead-In and Lead-Out : No
Fill up missing offset samples with silence : Yes
Delete leading and trailing silent blocks : No
Null samples used in CRC calculations : Yes
Used interface : Native Win32 interface for Win NT & 2000
Used output format : User Defined Encoder
Selected bitrate : 896 kBit/s
Quality : High
Add ID3 tag : No
Command line compressor : C:\Program Files\Exact Audio Copy\FLAC\FLAC.EXE
Additional command line options : -V -8 %source%
TOC of the extracted CD
Track | Start | Length | Start sector | End sector
---------------------------------------------------------
1 | 0:00.00 | 7:01.04 | 0 | 31578
2 | 7:01.04 | 1:04.24 | 31579 | 36402
3 | 8:05.28 | 5:53.12 | 36403 | 62889
4 | 13:58.40 | 0:27.01 | 62890 | 64915
5 | 14:25.41 | 1:00.57 | 64916 | 69472
6 | 15:26.23 | 2:32.43 | 69473 | 80915
7 | 17:58.66 | 3:55.12 | 80916 | 98552
8 | 21:54.03 | 0:47.47 | 98553 | 102124
9 | 22:41.50 | 4:52.70 | 102125 | 124094
10 | 27:34.45 | 0:48.00 | 124095 | 127694
11 | 28:22.45 | 1:21.07 | 127695 | 133776
12 | 29:43.52 | 3:10.29 | 133777 | 148055
13 | 32:54.06 | 1:19.46 | 148056 | 154026
14 | 34:13.52 | 2:51.10 | 154027 | 166861
15 | 37:04.62 | 0:34.55 | 166862 | 169466
16 | 37:39.42 | 3:31.46 | 169467 | 185337
17 | 41:11.13 | 5:05.09 | 185338 | 208221
18 | 46:16.22 | 4:33.56 | 208222 | 228752
19 | 50:50.03 | 6:42.51 | 228753 | 258953
20 | 57:32.54 | 5:02.37 | 258954 | 281640
Range status and errors
Selected range
Filename D:\temp\Music\Handel-Mozart - Timotheus oder die Gewalt der Musik\Handel,Mozart - Timotheus oder die Gewalt der Musik - CD1.wav
Peak level 97.3 %
Extraction speed 2.7 X
Range quality 100.0 %
Test CRC 56F3D1C6
Copy CRC 56F3D1C6
Copy OK
No errors occurred
AccurateRip summary
Track 1 accurately ripped (confidence 4) [B2888819] (AR v2)
Track 2 accurately ripped (confidence 4) [8C992981] (AR v2)
Track 3 accurately ripped (confidence 4) [C5526BFD] (AR v2)
Track 4 accurately ripped (confidence 4) [7583D5D9] (AR v2)
Track 5 accurately ripped (confidence 4) [5BFED87E] (AR v2)
Track 6 accurately ripped (confidence 4) [C1172E7F] (AR v2)
Track 7 accurately ripped (confidence 4) [8F70AE0A] (AR v2)
Track 8 accurately ripped (confidence 4) [0C511299] (AR v2)
Track 9 accurately ripped (confidence 4) [56D0F56E] (AR v2)
Track 10 accurately ripped (confidence 4) [48920332] (AR v2)
Track 11 accurately ripped (confidence 4) [79893E6D] (AR v2)
Track 12 accurately ripped (confidence 4) [9E763753] (AR v2)
Track 13 accurately ripped (confidence 4) [9BE3C6BE] (AR v2)
Track 14 accurately ripped (confidence 4) [9868EECA] (AR v2)
Track 15 accurately ripped (confidence 4) [EB7976CC] (AR v2)
Track 16 accurately ripped (confidence 4) [8E907504] (AR v2)
Track 17 accurately ripped (confidence 4) [3775DA75] (AR v2)
Track 18 accurately ripped (confidence 4) [18B9943B] (AR v2)
Track 19 accurately ripped (confidence 4) [8EECA798] (AR v2)
Track 20 accurately ripped (confidence 4) [921320C7] (AR v2)
All tracks accurately ripped
End of status report
==== Log checksum 28D883B12D784F6458DBB9D963914725A9E879260958FC5EB57C90E0013E9FC7 ====

Лог создания рипа: CD2

Exact Audio Copy V1.0 beta 3 from 29. August 2011
EAC extraction logfile from 17. February 2014, 16:17
Concentus Musicus Wien, Singverein der Gesellschaft der Musikfreunde in Wien, Nikolaus Harnoncourt / Handel/Mozart: Timotheus oder die Gewalt der Musik - CD2
Used drive : HL-DT-STDVDRRW GWA-4164B Adapter: 5 ID: 0
Read mode : Secure
Utilize accurate stream : Yes
Defeat audio cache : Yes
Make use of C2 pointers : No
Read offset correction : 102
Overread into Lead-In and Lead-Out : No
Fill up missing offset samples with silence : Yes
Delete leading and trailing silent blocks : No
Null samples used in CRC calculations : Yes
Used interface : Native Win32 interface for Win NT & 2000
Used output format : User Defined Encoder
Selected bitrate : 896 kBit/s
Quality : High
Add ID3 tag : No
Command line compressor : C:\Program Files\Exact Audio Copy\FLAC\FLAC.EXE
Additional command line options : -V -8 %source%
TOC of the extracted CD
Track | Start | Length | Start sector | End sector
---------------------------------------------------------
1 | 0:00.00 | 5:59.50 | 0 | 26974
2 | 5:59.50 | 4:58.65 | 26975 | 49389
3 | 10:58.40 | 8:26.28 | 49390 | 87367
4 | 19:24.68 | 1:43.51 | 87368 | 95143
5 | 21:08.44 | 2:15.14 | 95144 | 105282
6 | 23:23.58 | 5:24.20 | 105283 | 129602
7 | 28:48.03 | 6:31.14 | 129603 | 158941
8 | 35:19.17 | 0:25.10 | 158942 | 160826
9 | 35:44.27 | 5:05.69 | 160827 | 183770
Range status and errors
Selected range
Filename D:\temp\Music\Handel-Mozart - Timotheus oder die Gewalt der Musik\Handel,Mozart - Timotheus oder die Gewalt der Musik - CD2.wav
Peak level 98.8 %
Extraction speed 3.2 X
Range quality 100.0 %
Test CRC 69E04886
Copy CRC 69E04886
Copy OK
No errors occurred
AccurateRip summary
Track 1 accurately ripped (confidence 5) [5ADD4393] (AR v2)
Track 2 accurately ripped (confidence 5) [71BCC910] (AR v2)
Track 3 accurately ripped (confidence 5) [700E9126] (AR v2)
Track 4 accurately ripped (confidence 5) [5121CF3C] (AR v2)
Track 5 accurately ripped (confidence 5) [94CCE0FE] (AR v2)
Track 6 accurately ripped (confidence 5) [45D50B34] (AR v2)
Track 7 accurately ripped (confidence 5) [744E9DBB] (AR v2)
Track 8 accurately ripped (confidence 5) [F5899734] (AR v2)
Track 9 accurately ripped (confidence 5) [C32AC53C] (AR v2)
All tracks accurately ripped
End of status report
==== Log checksum E158FE2CABAE11AA39C8BE855107D4487496D4C316B05FB3289B83B0858B2E64 ====
[teatrix.ru].t18281.torrent 
Торрент: Зарегистрирован [ 2016-03-17 00:39 ] · 79FE6A3D98670E4A06994B636505482A1B50D5B9

Скачать .torrent

Скачать

39 KB

Статус: проверено
Скачан: 0 раз
Размер: 463 MB
terms.php



Быстрый ответ

Имя:

      
Для отправки сообщений необходимо включить JavaScript
Показать сообщения:    

Текущее время: 11-Дек 14:58

Часовой пояс: UTC + 3


Вы можете начинать темы
Вы можете отвечать на сообщения
Вы не можете редактировать свои сообщения
Вы не можете удалять свои сообщения
Вы не можете голосовать в опросах
Вы не можете прикреплять файлы к сообщениям
Вы можете скачивать файлы