(Cantata) Carl Orff - »Carmina Burana« (M.Venuti • U.Kenklies • P.Binder • NDR-Sinfonieorchester - Gunter Wand) - 2005, FLAC (image+.cue) lossless


Статистика раздачи [Обновить пиров]
Размер:  284 MB   |    Зарегистрирован:  8 месяцев 20 дней   |    Скачан:  0 раз

Полного источника не было: Никогда

 
   
 
 
 

[Цитировать]

CARL ORFF
CARMINA BURANA
- Жанр: Cantata
Страна-производитель диска: Germany
Год издания диска: 2005
Издатель (лейбл): Hanssler
Дата записи: 1984
Аудиокодек: FLAC
Тип рипа: image+.cue
Битрейт аудио: lossless
Продолжительность: 60'08''
Источник: собственный рип
Наличие сканов в содержимом раздачи: да
Треклист:
[1] Fortuna imperatrix mundi: O Fortuna
[2] Fortune Plango Vulnera
[3] Primo vere: Veris Leta Facies
[4] Omnia Sol Temperat
[5] Ecce Gratum
[6] Dance
[7] Floret Sila Nobilis
[8] Chramer, Gip Die Varwe Mir
[9] Reie
[10] Were Diu Werlt Alle Min
[11] In taberna: Estuans Interius
[12] Olim Lacus Colueram
[13] Ego Sum Abbas
[14] In Taberna Quando Sumus
[15] Cour d'amours: Amor Volat Undique
[16] Dies, Nox Et Omnia
[17] Stetit Puella
[18] Circa Mea Pectora
[19] Si Puer Cum Puellula
[20] Veni, Veni Venias
[21] In Trutina
[22] Tempus Est Locundum
[23] Dulcissime
[24] Blanzifor et Helena: Ave, Formosissima
[25] Fortuna imperatrix mundi: O Fortuna
Исполнители:
Maria Venuti soprano • Ulf Kenklies tenor • Peter Binder bariton
Hamburger Knabenchor • Opernchor des Niedersächsischen Staatstheaters Hannover • NDR Choir
NDR-Sinfonieorchester
Günter Wand-

Лог создания рипа

Exact Audio Copy V1.0 beta 3 from 29. August 2011
EAC extraction logfile from 13. January 2013, 15:41
Gunter Wand & Symphonie-Orchester des NDR / Carl ORFF: Carmina Burana
Used drive : PHILIPS CDRW1610A Adapter: 0 ID: 0
Read mode : Secure
Utilize accurate stream : Yes
Defeat audio cache : Yes
Make use of C2 pointers : No
Read offset correction : 733
Overread into Lead-In and Lead-Out : No
Fill up missing offset samples with silence : Yes
Delete leading and trailing silent blocks : No
Null samples used in CRC calculations : Yes
Used interface : Native Win32 interface for Win NT & 2000
Used output format : User Defined Encoder
Selected bitrate : 128 kBit/s
Quality : High
Add ID3 tag : No
Command line compressor : C:\Program Files\FLAC\flac.exe
Additional command line options : -T "COMMENT=rip by el coronel, rutracker.org" -V -8 %source%
TOC of the extracted CD
Track | Start | Length | Start sector | End sector
---------------------------------------------------------
1 | 0:00.00 | 2:38.36 | 0 | 11885
2 | 2:38.36 | 2:45.27 | 11886 | 24287
3 | 5:23.63 | 3:43.09 | 24288 | 41021
4 | 9:06.72 | 1:55.21 | 41022 | 49667
5 | 11:02.18 | 2:38.06 | 49668 | 61523
6 | 13:40.24 | 1:47.36 | 61524 | 69584
7 | 15:27.60 | 3:23.31 | 69585 | 84840
8 | 18:51.16 | 5:48.26 | 84841 | 110966
9 | 24:39.42 | 2:59.51 | 110967 | 124442
10 | 27:39.18 | 0:54.24 | 124443 | 128516
11 | 28:33.42 | 2:52.70 | 128517 | 141486
12 | 31:26.37 | 3:22.23 | 141487 | 156659
13 | 34:48.60 | 1:27.12 | 156660 | 163196
14 | 36:15.72 | 3:14.74 | 163197 | 177820
15 | 39:30.71 | 3:25.00 | 177821 | 193195
16 | 42:55.71 | 2:23.27 | 193196 | 203947
17 | 45:19.23 | 1:45.44 | 203948 | 211866
18 | 47:04.67 | 2:05.39 | 211867 | 221280
19 | 49:10.31 | 0:57.53 | 221281 | 225608
20 | 50:08.09 | 0:58.48 | 225609 | 230006
21 | 51:06.57 | 2:20.32 | 230007 | 240538
22 | 53:27.14 | 2:14.30 | 240539 | 250618
23 | 55:41.44 | 0:47.20 | 250619 | 254163
24 | 56:28.64 | 1:15.08 | 254164 | 259796
25 | 57:43.72 | 2:34.15 | 259797 | 271361
Range status and errors
Selected range
Filename G:\Music\Orff - Carmina Burana (NDR, Wand)\Orff - Carmina Burana (NDR, Wand).wav
Peak level 100.0 %
Extraction speed 5.6 X
Range quality 99.9 %
Test CRC 451BA29A
Copy CRC 451BA29A
Copy OK
No errors occurred
AccurateRip summary
Track 1 accurately ripped (confidence 5) [4B7217BD] (AR v1)
Track 2 accurately ripped (confidence 5) [A1FC0815] (AR v1)
Track 3 accurately ripped (confidence 5) [ED1EB020] (AR v1)
Track 4 accurately ripped (confidence 5) [4A5730E3] (AR v1)
Track 5 accurately ripped (confidence 5) [ADF083E2] (AR v1)
Track 6 accurately ripped (confidence 5) [B9CCD133] (AR v1)
Track 7 accurately ripped (confidence 5) [86513176] (AR v1)
Track 8 accurately ripped (confidence 5) [648C186A] (AR v1)
Track 9 accurately ripped (confidence 5) [83E72285] (AR v1)
Track 10 accurately ripped (confidence 5) [72DCB4CE] (AR v1)
Track 11 accurately ripped (confidence 5) [2B0084F7] (AR v1)
Track 12 accurately ripped (confidence 5) [2DB0654F] (AR v1)
Track 13 accurately ripped (confidence 5) [BCCB7B47] (AR v1)
Track 14 accurately ripped (confidence 5) [06D42028] (AR v1)
Track 15 accurately ripped (confidence 5) [255AD315] (AR v1)
Track 16 accurately ripped (confidence 5) [01FD70CA] (AR v1)
Track 17 accurately ripped (confidence 5) [CB8A9E5B] (AR v1)
Track 18 accurately ripped (confidence 5) [C29C0EAF] (AR v1)
Track 19 accurately ripped (confidence 5) [7A207F10] (AR v1)
Track 20 accurately ripped (confidence 5) [3BCF15CF] (AR v1)
Track 21 accurately ripped (confidence 5) [3A3FAC93] (AR v1)
Track 22 accurately ripped (confidence 5) [953F321B] (AR v1)
Track 23 accurately ripped (confidence 5) [AA03252C] (AR v1)
Track 24 accurately ripped (confidence 5) [48FEA07F] (AR v1)
Track 25 accurately ripped (confidence 5) [E474125A] (AR v1)
All tracks accurately ripped
End of status report
==== Log checksum 73E3F73891ED291357D58DD3D4886BB4957540004F1C2107AC9C52B7C628AC93 ====

Содержание индексной карты (.CUE)

REM GENRE Classical
REM DATE 2005
REM DISCID 600E2219
REM COMMENT "ExactAudioCopy v1.0b3"
PERFORMER "Gunter Wand & Symphonie-Orchester des NDR"
TITLE "Carl ORFF: Carmina Burana"
FILE "Orff - Carmina Burana (NDR, Wand).flac" WAVE
TRACK 01 AUDIO
TITLE "Carmina Burana: Fortuna Imperatrix Mundi - O Fortuna"
PERFORMER "Gunter Wand & Symphonie-Orchester des NDR"
INDEX 01 00:00:00
TRACK 02 AUDIO
TITLE "Carmina Burana: Fortuna Imperatrix Mundi - Fortune plango vulnera"
PERFORMER "Gunter Wand & Symphonie-Orchester des NDR"
FLAGS DCP
INDEX 01 02:38:36
TRACK 03 AUDIO
TITLE "Carmina Burana: I. Primo vere - Veris leta facies"
PERFORMER "Gunter Wand & Symphonie-Orchester des NDR"
INDEX 01 05:23:63
TRACK 04 AUDIO
TITLE "Carmina Burana: I. Primo vere - Omnia sol temperat"
PERFORMER "Gunter Wand & Symphonie-Orchester des NDR"
FLAGS DCP
INDEX 01 09:06:72
TRACK 05 AUDIO
TITLE "Carmina Burana: I. Primo vere - Ecce gratum"
PERFORMER "Gunter Wand & Symphonie-Orchester des NDR"
FLAGS DCP
INDEX 01 11:02:18
TRACK 06 AUDIO
TITLE "Carmina Burana: Uf dem anger - Tanz"
PERFORMER "Gunter Wand & Symphonie-Orchester des NDR"
INDEX 01 13:40:24
TRACK 07 AUDIO
TITLE "Carmina Burana: Uf dem anger - Floret Silva"
PERFORMER "Gunter Wand & Symphonie-Orchester des NDR"
FLAGS DCP
INDEX 01 15:27:60
TRACK 08 AUDIO
TITLE "Carmina Burana: Uf dem anger - Chramer, gip die verwe mir"
PERFORMER "Gunter Wand & Symphonie-Orchester des NDR"
FLAGS DCP
INDEX 01 18:51:16
TRACK 09 AUDIO
TITLE "Carmina Burana: Uf dem anger - Reie"
PERFORMER "Gunter Wand & Symphonie-Orchester des NDR"
FLAGS DCP
INDEX 01 24:39:42
TRACK 10 AUDIO
TITLE "Carmina Burana: Uf dem anger - Were diu werlt alle min"
PERFORMER "Gunter Wand & Symphonie-Orchester des NDR"
FLAGS DCP
INDEX 01 27:39:18
TRACK 11 AUDIO
TITLE "Carmina Burana: II. In taberna - Estuans interius"
PERFORMER "Gunter Wand & Symphonie-Orchester des NDR"
INDEX 01 28:33:42
TRACK 12 AUDIO
TITLE "Carmina Burana: II. In taberna - Olim lacus colueram"
PERFORMER "Gunter Wand & Symphonie-Orchester des NDR"
FLAGS DCP
INDEX 01 31:26:37
TRACK 13 AUDIO
TITLE "Carmina Burana: II. In taberna - Ego sum abbas"
PERFORMER "Gunter Wand & Symphonie-Orchester des NDR"
FLAGS DCP
INDEX 01 34:48:60
TRACK 14 AUDIO
TITLE "Carmina Burana: II. In taberna - In taberna quando sumus"
PERFORMER "Gunter Wand & Symphonie-Orchester des NDR"
FLAGS DCP
INDEX 01 36:15:72
TRACK 15 AUDIO
TITLE "Carmina Burana: III. Cour d'amours - Amor volat undique"
PERFORMER "Gunter Wand & Symphonie-Orchester des NDR"
INDEX 01 39:30:71
TRACK 16 AUDIO
TITLE "Carmina Burana: III. Cour d'amours - Dies, nox et omnia"
PERFORMER "Gunter Wand & Symphonie-Orchester des NDR"
FLAGS DCP
INDEX 01 42:55:71
TRACK 17 AUDIO
TITLE "Carmina Burana: III. Cour d'amours - Stetit puella"
PERFORMER "Gunter Wand & Symphonie-Orchester des NDR"
FLAGS DCP
INDEX 01 45:19:23
TRACK 18 AUDIO
TITLE "Carmina Burana: III. Cour d'amours - Circa mea pectora"
PERFORMER "Gunter Wand & Symphonie-Orchester des NDR"
FLAGS DCP
INDEX 01 47:04:67
TRACK 19 AUDIO
TITLE "Carmina Burana: III. Cour d'amours - Si puer cum puellula"
PERFORMER "Gunter Wand & Symphonie-Orchester des NDR"
FLAGS DCP
INDEX 01 49:10:31
TRACK 20 AUDIO
TITLE "Carmina Burana: III. Cour d'amours - Veni, veni, venias"
PERFORMER "Gunter Wand & Symphonie-Orchester des NDR"
FLAGS DCP
INDEX 01 50:08:09
TRACK 21 AUDIO
TITLE "Carmina Burana: III. Cour d'amours - In trutina"
PERFORMER "Gunter Wand & Symphonie-Orchester des NDR"
FLAGS DCP
INDEX 01 51:06:57
TRACK 22 AUDIO
TITLE "Carmina Burana: III. Cour d'amours - Tempus est iocundum"
PERFORMER "Gunter Wand & Symphonie-Orchester des NDR"
FLAGS DCP
INDEX 01 53:27:14
TRACK 23 AUDIO
TITLE "Carmina Burana: III. Cour d'amours - Dulcissime"
PERFORMER "Gunter Wand & Symphonie-Orchester des NDR"
FLAGS DCP
INDEX 01 55:41:44
TRACK 24 AUDIO
TITLE "Carmina Burana: Blanziflor et Helena - Ave formosissima"
PERFORMER "Gunter Wand & Symphonie-Orchester des NDR"
INDEX 01 56:28:64
TRACK 25 AUDIO
TITLE "Carmina Burana: Fortuna Imperatrix Mundi (II) - O Fortuna"
PERFORMER "Gunter Wand & Symphonie-Orchester des NDR"
INDEX 01 57:43:72
-
[teatrix.ru].t18282.torrent 
Торрент: Зарегистрирован [ 2016-03-17 00:39 ] · 206F534236FC8038CB86FF18A5CF48A7633C1C5B

Скачать .torrent

Скачать

12 KB

Статус: проверено
Скачан: 0 раз
Размер: 284 MB
terms.php



Быстрый ответ

Имя:

      
Для отправки сообщений необходимо включить JavaScript
Показать сообщения:    

Текущее время: 06-Дек 17:09

Часовой пояс: UTC + 3


Вы можете начинать темы
Вы можете отвечать на сообщения
Вы не можете редактировать свои сообщения
Вы не можете удалять свои сообщения
Вы не можете голосовать в опросах
Вы не можете прикреплять файлы к сообщениям
Вы можете скачивать файлы