(Classical) Wolfgang Amadeus Mozart, Johann Molter - Clarinet Concertos - Kari Kriikku, Tapiola Sinfonietta, John Storgards - 2005, FLAC (image+.cue) lossless


Статистика раздачи [Обновить пиров]
Размер:  268 MB   |    Зарегистрирован:  8 месяцев 19 дней   |    Скачан:  0 раз

Полного источника не было: Никогда

 
   
 
 
 

[Цитировать]

Wolfgang Amadeus Mozart, Johann Molter - Clarinet Concertos - Kari Kriikku, Tapiola Sinfonietta, John Storgårds
Жанр: Classical
Страна-производитель диска: Finland
Год издания диска: 2005
Издатель (лейбл): Ondine
Номер по каталогу: ODE 1056-2
Дата записи: 2004, 2005
Аудиокодек: FLAC
Тип рипа: image+.cue
Битрейт аудио: lossless
Продолжительность: 62:19
Источник: собственный рип
Наличие сканов в содержимом раздачи: да
Треклист:
Johann Melchior Molter (1696–1765)
[1]-[3] Concerto No. 1 in A Major for Clarinet in D, String Orchestra and Continuo
[4]-[6] Concerto No. 3 in G Major for Clarinet in D, String Orchestra and Continuo
[7]-[9] Concerto No. 4 in D Major for Clarinet in D, String Orchestra and Continuo
Wolfgang Amadeus Mozart (1756–1791)
[10]-[12] Concerto in A Major for Clarinet and Orchestra KV 622*
Исполнители:
Kari Kriikku clarinet in D & basset clarinet*
Tapiola Sinfonietta
John Storgårds
conductor

Лог создания рипа

Exact Audio Copy V1.0 beta 3 from 29. August 2011
EAC extraction logfile from 19. January 2014, 10:31
Kari Kriikku, Tapiola Sinfonietta, John Storgårds / Molter, Mozart - Clarinet Concertos
Used drive : HL-DT-STDVDRAM GSA-4083N Adapter: 1 ID: 0
Read mode : Secure
Utilize accurate stream : Yes
Defeat audio cache : Yes
Make use of C2 pointers : No
Read offset correction : 667
Overread into Lead-In and Lead-Out : No
Fill up missing offset samples with silence : Yes
Delete leading and trailing silent blocks : No
Null samples used in CRC calculations : Yes
Used interface : Native Win32 interface for Win NT & 2000
Used output format : User Defined Encoder
Selected bitrate : 896 kBit/s
Quality : High
Add ID3 tag : No
Command line compressor : C:\Program Files\Exact Audio Copy\Flac\flac.exe
Additional command line options : -V -8 %source%
TOC of the extracted CD
Track | Start | Length | Start sector | End sector
---------------------------------------------------------
1 | 0:00.00 | 4:04.29 | 0 | 18328
2 | 4:04.29 | 4:42.03 | 18329 | 39481
3 | 8:46.32 | 3:05.37 | 39482 | 53393
4 | 11:51.69 | 4:33.27 | 53394 | 73895
5 | 16:25.21 | 4:13.65 | 73896 | 92935
6 | 20:39.11 | 2:13.16 | 92936 | 102926
7 | 22:52.27 | 4:40.67 | 102927 | 123993
8 | 27:33.19 | 4:15.27 | 123994 | 143145
9 | 31:48.46 | 2:50.01 | 143146 | 155896
10 | 34:38.47 | 12:10.38 | 155897 | 210684
11 | 46:49.10 | 7:18.04 | 210685 | 243538
12 | 54:07.14 | 8:11.47 | 243539 | 280410
Range status and errors
Selected range
Filename J:\New Music\Molter, Mozart - Clarinet Concertos - Kari Kriikku\Molter, Mozart - Clarinet Concertos.wav
Peak level 72.8 %
Extraction speed 2.6 X
Range quality 99.9 %
Test CRC E2786680
Copy CRC E2786680
Copy OK
No errors occurred
AccurateRip summary
Track 1 accurately ripped (confidence 2) [E4A29EA9] (AR v2)
Track 2 accurately ripped (confidence 2) [5C4620BB] (AR v2)
Track 3 accurately ripped (confidence 2) [6BC89021] (AR v2)
Track 4 accurately ripped (confidence 2) [852C99B7] (AR v2)
Track 5 accurately ripped (confidence 2) [2EA50881] (AR v2)
Track 6 accurately ripped (confidence 2) [488866EC] (AR v2)
Track 7 accurately ripped (confidence 2) [A50529B6] (AR v2)
Track 8 accurately ripped (confidence 2) [3F1E59E5] (AR v2)
Track 9 accurately ripped (confidence 2) [2ABAF73E] (AR v2)
Track 10 accurately ripped (confidence 2) [AB538A62] (AR v2)
Track 11 accurately ripped (confidence 2) [A6E3DF40] (AR v2)
Track 12 accurately ripped (confidence 2) [0A57493B] (AR v2)
All tracks accurately ripped
End of status report
==== Log checksum 02992B22B3AA3AD7607B1EDFDF5380909B6235416A42932760EB26785071DF52 ====
[teatrix.ru].t18283.torrent 
Торрент: Зарегистрирован [ 2016-03-17 00:39 ] · E00B335531D941A4D2DD30A06F8FF19E21508CB5

Скачать .torrent

Скачать

22 KB

Статус: проверено
Скачан: 0 раз
Размер: 268 MB
terms.php



Быстрый ответ

Имя:

      
Для отправки сообщений необходимо включить JavaScript
Показать сообщения:    

Текущее время: 05-Дек 17:36

Часовой пояс: UTC + 3


Вы можете начинать темы
Вы можете отвечать на сообщения
Вы не можете редактировать свои сообщения
Вы не можете удалять свои сообщения
Вы не можете голосовать в опросах
Вы не можете прикреплять файлы к сообщениям
Вы можете скачивать файлы