Наедине со всеми - Марина Максимова (MakSim) [25.03.2014, ТВ-ШОУ, DVB]


Статистика раздачи [Обновить пиров]
Размер:  1.41 GB   |    Зарегистрирован:  8 месяцев 18 дней   |    Скачан:  0 раз

Полного источника не было: Никогда

 
   
 
 
 

[Цитировать]

Наедине со всеми - Марина Максимова (MakSim)
Дата/Год выпуска: 25.03.2014
Страна: Россия
Жанр: ТВ-ШОУ
Продолжительность: 00:45:06
Перевод: Не требуется
Русские субтитры: нет
Телеканал: Первый
Описание: Певица МакSим – о том, как она попала в список журнала Forbes и почему она решила венчаться со своим супругом
качество: DVB
формат: MPG
Видео: MPEG-2 TS, 720x576, 16:9, 4000 kbps, 25 fps
Аудио: MPEG Audio layer 2, 192 kbps, 48 kHz, 2 ch
SAMPLE: http://sendfile.su/959113

MediaInfo

General
Complete name : D:\Бабени\maksim\video\[2014-03-25] Наедине со всеми - Марина Максимова (MakSim).mpg
Format : MPEG-PS
File size : 1.41 GiB
Duration : 45mn 6s
Overall bit rate mode : Variable
Overall bit rate : 4 489 Kbps
Writing library : (c) 1998-2012 Womble Multimedia, Inc. / MPEG Video Wizard DVD 5.0.1.100 (03/2011) / Sep 22 2012
Video
ID : 224 (0xE0)
Format : MPEG Video
Format version : Version 2
Format profile : Main@Main
Format settings, BVOP : Yes
Format settings, Matrix : Custom
Format settings, GOP : M=3, N=12
Duration : 45mn 6s
Bit rate mode : Variable
Bit rate : 4 207 Kbps
Maximum bit rate : 15.0 Mbps
Width : 720 pixels
Height : 576 pixels
Display aspect ratio : 16:9
Frame rate : 25.000 fps
Standard : PAL
Color space : YUV
Chroma subsampling : 4:2:0
Bit depth : 8 bits
Scan type : Interlaced
Scan order : Top Field First
Compression mode : Lossy
Bits/(Pixel*Frame) : 0.406
Stream size : 1.33 GiB (94%)
Writing library : (c) 1998-2012 Womble Multimedia, Inc. / MPEG Video Wizard DVD 5.0.1.100 (03/2011) / Sep 22 2012
Audio
ID : 192 (0xC0)
Format : MPEG Audio
Format version : Version 1
Format profile : Layer 2
Duration : 45mn 6s
Bit rate mode : Constant
Bit rate : 192 Kbps
Channel(s) : 2 channels
Sampling rate : 48.0 KHz
Compression mode : Lossy
Delay relative to video : -40ms
Stream size : 62.0 MiB (4%)

Скриншоты

[teatrix.ru].t18284.torrent 
Торрент: Зарегистрирован [ 2016-03-17 00:39 ] · 608688E9AB9F84E12B140287AE34A8259DCADF1F

Скачать .torrent

Скачать

15 KB

Статус: проверено
Скачан: 0 раз
Размер: 1.41 GB
terms.php



Быстрый ответ

Имя:

      
Для отправки сообщений необходимо включить JavaScript
Показать сообщения:    

Текущее время: 04-Дек 02:54

Часовой пояс: UTC + 3


Вы можете начинать темы
Вы можете отвечать на сообщения
Вы не можете редактировать свои сообщения
Вы не можете удалять свои сообщения
Вы не можете голосовать в опросах
Вы не можете прикреплять файлы к сообщениям
Вы можете скачивать файлы