Пик популярности - MakSim: Другая реальность (RU-TV) [2014.03.22, Документальный, DVB]


Статистика раздачи [Обновить пиров]
Размер:  983 MB   |    Зарегистрирован:  8 месяцев 19 дней   |    Скачан:  0 раз

Полного источника не было: Никогда

 
   
 
 
 

[Цитировать]

Пик популярности - MakSim: Другая реальность
Дата/Год выпуска: 2014.03.22
Страна: Россия
Жанр: Документальный
Продолжительность: 00:35:04
Перевод: Не требуется
Русские субтитры: нет
Режиссер: RU-TV
Телеканал: RU-TV
Описание: Слава – это самое сложное испытание, которое должен пройти каждый артист. Многие не выдерживают. Уходят. Ломаются. Но многие и остаются. “ПИК ПОПУЛЯРНОСТИ” – это новый цикл документальных передач об обратной стороне славы. О том, что красивая жизнь артиста, к которой мы так привыкли - на самом деле полна страданий, переживаний и боли. Малоизвестные факты биографии, редкие кадры, архивные хроники и откровенные признания звезд совсем скоро на телеканале RU.TV!
Сэмпл: http://sendfile.su/959654
качество: DVB
формат: MPG
Видео: MPEG-2 PS, 720 x 576, 25 fps, ~3400 kbps, 0.328
Аудио: MPEG Audio Layer 2, 48 kHz, 2 ch, 256 kbps

MediaInfo

General
Complete name : D:\Бабени\maksim\video\[2014-03-22] Пик популярности - MakSim.mpg
Format : MPEG-PS
File size : 983 MiB
Duration : 35mn 4s
Overall bit rate mode : Variable
Overall bit rate : 3 918 Kbps
Writing library : (c) 1998-2012 Womble Multimedia, Inc. / MPEG Video Wizard DVD 5.0.1.100 (03/2011) / Sep 22 2012
Video
ID : 224 (0xE0)
Format : MPEG Video
Format version : Version 2
Format profile : Main@Main
Format settings, BVOP : Yes
Format settings, Matrix : Custom
Format settings, GOP : M=3, N=36
Duration : 35mn 4s
Bit rate mode : Variable
Bit rate : 3 584 Kbps
Maximum bit rate : 15.0 Mbps
Width : 720 pixels
Height : 576 pixels
Display aspect ratio : 4:3
Active Format Description : Full frame 16:9 image
Frame rate : 25.000 fps
Standard : PAL
Color space : YUV
Chroma subsampling : 4:2:0
Bit depth : 8 bits
Scan type : Interlaced
Scan order : Top Field First
Compression mode : Lossy
Bits/(Pixel*Frame) : 0.346
Stream size : 899 MiB (91%)
Writing library : (c) 1998-2012 Womble Multimedia, Inc. / MPEG Video Wizard DVD 5.0.1.100 (03/2011) / Sep 22 2012
Audio
ID : 192 (0xC0)
Format : MPEG Audio
Format version : Version 1
Format profile : Layer 2
Duration : 35mn 4s
Bit rate mode : Constant
Bit rate : 256 Kbps
Channel(s) : 2 channels
Sampling rate : 48.0 KHz
Compression mode : Lossy
Stream size : 64.2 MiB (7%)

Скриншоты

[teatrix.ru].t18289.torrent 
Торрент: Зарегистрирован [ 2016-03-17 00:39 ] · 2F38166F3A125A077EAD2CC500A5246E876C8C68

Скачать .torrent

Скачать

20 KB

Статус: проверено
Скачан: 0 раз
Размер: 983 MB
terms.php



Быстрый ответ

Имя:

      
Для отправки сообщений необходимо включить JavaScript
Показать сообщения:    

Текущее время: 05-Дек 19:35

Часовой пояс: UTC + 3


Вы можете начинать темы
Вы можете отвечать на сообщения
Вы не можете редактировать свои сообщения
Вы не можете удалять свои сообщения
Вы не можете голосовать в опросах
Вы не можете прикреплять файлы к сообщениям
Вы можете скачивать файлы