(Classical/Oratorio) Ludwig van Beethoven - Christus am Olberge, Op.85 | Людвиг ван Бетховен - Христос на Масличной Горе, соч.85 (Placido Domingo, Luba Orgonasova, Andreas Schmidt - Kent Nagano) - 2013, FLAC (image+.cue) lossless


Статистика раздачи [Обновить пиров]
Размер:  245 MB   |    Зарегистрирован:  8 месяцев 23 дня   |    Скачан:  0 раз

Полного источника не было: Никогда

 
   
 
 
 

[Цитировать]

Ludwig van Beethoven - Christus am Ölberge, Op.85
Жанр: Classical/Oratorio
Страна-производитель диска: France
Год издания диска: 2013
Издатель (лейбл): harmonia mundi
Номер по каталогу: HMG 501802
Дата записи: IX.2002
Аудиокодек: FLAC
Тип рипа: image+.cue
Битрейт аудио: lossless
Продолжительность: 47'33"
Источник: собственный рип
Наличие сканов в содержимом раздачи: да
Треклист:
Christus am Ölberge, Op.85
01. Introduzione
02. No.1. Jesus : Jehovah, du mein Vater!
03. Jesus : Meine Seele ist erschuttert
04. No.2. Seraph : Erzittre Erde!
05. Seraph : Preist des Erlosers Gute
06. No.3. Jesus, Seraph : Verkundet, Seraph
07. Jesus, Seraph : So ruhe denn mit ganzer Schwere
08. No.4. Jesus : Willkommen, Tod!
09. Chor der Krieger : Wir haben ihn gesehen
10. No.5. Jesus : Die mich zu fangen ausgezogen sind
11. Chor der Krieger, Chor der Junger : Hier ist er
12. No.6. Petrus, Jesus : Nicht ungestraft
13. Petrus, Jesus, Seraph : In meinen Adern
14. Chor der Krieger, Chor der Junger, Jesus : Auf, auf!
15. Chor der Engel : Welten singen Dank und Ehre

Исполнители:
Ľuba Orgonášová, soprano
Plácido Domingo, tenor
Andreas Schmidt, bass
Rundfunkchor Berlin
Deutsches Symphonie-Orchester Berlin
Kent Nagano
-

Лог создания рипа

Exact Audio Copy V1.0 beta 1 from 15. November 2010
EAC extraction logfile from 28. March 2014, 20:55
Ludwig van Beethoven / Christus am Olberge
Used drive : Optiarc DVD RW AD-7203A Adapter: 4 ID: 1
Read mode : Secure
Utilize accurate stream : Yes
Defeat audio cache : Yes
Make use of C2 pointers : No
Read offset correction : 48
Overread into Lead-In and Lead-Out : No
Fill up missing offset samples with silence : Yes
Delete leading and trailing silent blocks : No
Null samples used in CRC calculations : Yes
Used interface : Native Win32 interface for Win NT & 2000
Used output format : User Defined Encoder
Selected bitrate : 128 kBit/s
Quality : High
Add ID3 tag : No
Command line compressor : C:\Program Files\FLAC\flac.exe
Additional command line options : -T "COMMENT=Ripped by GFox" -8 -V %s
TOC of the extracted CD
Track | Start | Length | Start sector | End sector
---------------------------------------------------------
1 | 0:00.00 | 4:49.46 | 0 | 21720
2 | 4:49.46 | 2:56.10 | 21721 | 34930
3 | 7:45.56 | 4:34.15 | 34931 | 55495
4 | 12:19.71 | 1:17.54 | 55496 | 61324
5 | 13:37.50 | 7:45.69 | 61325 | 96268
6 | 21:23.44 | 1:04.15 | 96269 | 101083
7 | 22:27.59 | 5:26.51 | 101084 | 125584
8 | 27:54.35 | 0:54.48 | 125585 | 129682
9 | 28:49.08 | 2:34.18 | 129683 | 141250
10 | 31:23.26 | 1:13.33 | 141251 | 146758
11 | 32:36.59 | 2:23.23 | 146759 | 157506
12 | 35:00.07 | 1:11.48 | 157507 | 162879
13 | 36:11.55 | 4:45.08 | 162880 | 184262
14 | 40:56.63 | 2:31.45 | 184263 | 195632
15 | 43:28.33 | 4:05.13 | 195633 | 214020
Range status and errors
Selected range
Filename D:\EAC\Ludwig van Beethoven - Christus am Olberge.wav
Peak level 99.8 %
Extraction speed 0.3 X
Range quality 100.0 %
Test CRC FCEB090C
Copy CRC FCEB090C
Copy OK
No errors occurred
AccurateRip summary
Track 1 cannot be verified as accurate (confidence 5) [B0367B8B], AccurateRip returned [9F9DE6F1]
Track 2 cannot be verified as accurate (confidence 5) [883694C7], AccurateRip returned [35CC7162]
Track 3 cannot be verified as accurate (confidence 5) [50CFDE63], AccurateRip returned [C93C132E]
Track 4 cannot be verified as accurate (confidence 5) [3ECF346C], AccurateRip returned [19B5DC4E]
Track 5 cannot be verified as accurate (confidence 5) [6E58F0EC], AccurateRip returned [D170233C]
Track 6 cannot be verified as accurate (confidence 5) [B242DEE7], AccurateRip returned [14FF5AB5]
Track 7 cannot be verified as accurate (confidence 5) [4F997046], AccurateRip returned [1979CE12]
Track 8 cannot be verified as accurate (confidence 5) [9C99DFA2], AccurateRip returned [5395E806]
Track 9 cannot be verified as accurate (confidence 5) [ED43DD6E], AccurateRip returned [ECDCEFA7]
Track 10 cannot be verified as accurate (confidence 5) [70B7B359], AccurateRip returned [B0DA2D39]
Track 11 cannot be verified as accurate (confidence 5) [367290E7], AccurateRip returned [7CDB7E25]
Track 12 cannot be verified as accurate (confidence 5) [159E27F8], AccurateRip returned [AEFAD7A6]
Track 13 cannot be verified as accurate (confidence 5) [1778F8B3], AccurateRip returned [2DE55E23]
Track 14 cannot be verified as accurate (confidence 5) [8100E797], AccurateRip returned [5540D4D7]
Track 15 cannot be verified as accurate (confidence 5) [C2DAB636], AccurateRip returned [1A859395]
No tracks could be verified as accurate
You may have a different pressing from the one(s) in the database
End of status report
==== Log checksum 1E7794391D64BAED7513323D49F8894B92C374F8EA46F59E668B6A344C7AA16B ====
-Доп. информация: Единственная оратория Бетховена не часто удостаивалась записи. И тем ценнее встретить её со столь блистательным составом.-
[teatrix.ru].t18292.torrent 
Торрент: Зарегистрирован [ 2016-03-17 00:39 ] · 287EFAA269283333FC6EA70469963CEFD2436E8B

Скачать .torrent

Скачать

20 KB

Статус: проверено
Скачан: 0 раз
Размер: 245 MB
terms.php



Быстрый ответ

Имя:

      
Для отправки сообщений необходимо включить JavaScript
Показать сообщения:    

Текущее время: 09-Дек 14:40

Часовой пояс: UTC + 3


Вы можете начинать темы
Вы можете отвечать на сообщения
Вы не можете редактировать свои сообщения
Вы не можете удалять свои сообщения
Вы не можете голосовать в опросах
Вы не можете прикреплять файлы к сообщениям
Вы можете скачивать файлы