(Choral) Berlioz - »La Damnation de Faust« (Gedda • Crespin • Blanc • Morin • Markevitch \ Маркевич) | Bonus: Bizet - »Carmen« excerpts (Gedda • Guthrie • Simionato • Guden • Karajan) - 2010, FLAC (image+.cue) lossless


Статистика раздачи [Обновить пиров]
Размер:  319 MB   |    Зарегистрирован:  8 месяцев 18 дней   |    Скачан:  0 раз

Полного источника не было: Никогда

 
   
 
 
 

[Цитировать]

Hector Berlioz
LA DAMNATION DE FAUST
Gedda • Crespin • Blanc • Morin • Markevitch
- Жанр: Choral
Страна-производитель диска: EU
Год издания диска: 2010
Издатель (лейбл): Andromeda
Дата записи: 1959
Аудиокодек: FLAC
Тип рипа: image+.cue
Битрейт аудио: lossless
Продолжительность: 2:11'14''
Источник: собственный рип
Наличие сканов в содержимом раздачи: да
Треклист:

CD1

Hector Belioz - »La Damnation de Faust«
[1] PREMIER PARTIE: La viel hiver a fait palce au pintemps
[2] Les bergers laissent leurs troupeaux
[3] Mais d'un éclat guerrier les campagnes
[4] Marche Hongroise
[5] DEUXIEME PARTIE: Sans regrets j'ai quité les riantes
[6] Christ vient de ressuciter
[7] Hélas! Doux chants du ciel
[8] A boire encor du vin du Rhin
[9] Certain rat, dans une cuisine
[10] Vrai Dieu, messieurs
[11] Une puce gentille
[12]Voici des roses de cette buit
[13] Dors, heureux Faust, dors!
[14] Ballet des Sylphes
[15] Margarita! Qu'ai-je vu?
[16] Villes entourees de murs et remparts
[17] TROISIEME PARTIE: Merci, doux crépuscule!
[18] Je l'entends!
[19] Que l'air est etouffant!
[20] Autrefois un roi de Thulé
[21] Esprits des flammes inconstantes
[22] Menuet des follets

Лог создания рипа

Exact Audio Copy V1.0 beta 3 from 29. August 2011
EAC extraction logfile from 28. April 2013, 18:19
N.Gedda, R.Crespin, E.Blanc, L.Morin; Orchestre Nationa de la RTF - I.Markevitch / Berlioz - La Damnation de Faust CD1
Used drive : COMPAQ CD-ROM LTN403 Adapter: 0 ID: 0
Read mode : Secure
Utilize accurate stream : Yes
Defeat audio cache : Yes
Make use of C2 pointers : No
Read offset correction : -1164
Overread into Lead-In and Lead-Out : Yes
Fill up missing offset samples with silence : Yes
Delete leading and trailing silent blocks : No
Null samples used in CRC calculations : Yes
Used interface : Native Win32 interface for Win NT & 2000
Used output format : User Defined Encoder
Selected bitrate : 128 kBit/s
Quality : High
Add ID3 tag : No
Command line compressor : C:\Program Files\FLAC\flac.exe
Additional command line options : -T "COMMENT=rip by el coronel, rutracker.org" -8 -V %source%
TOC of the extracted CD
Track | Start | Length | Start sector | End sector
---------------------------------------------------------
1 | 0:00.00 | 5:45.57 | 0 | 25931
2 | 5:45.57 | 3:30.23 | 25932 | 41704
3 | 9:16.05 | 0:43.25 | 41705 | 44954
4 | 9:59.30 | 4:36.34 | 44955 | 65688
5 | 14:35.64 | 4:22.50 | 65689 | 85388
6 | 18:58.39 | 2:43.64 | 85389 | 97677
7 | 21:42.28 | 3:06.37 | 97678 | 111664
8 | 24:48.65 | 2:35.48 | 111665 | 123337
9 | 27:24.38 | 3:23.34 | 123338 | 138596
10 | 30:47.72 | 1:06.62 | 138597 | 143608
11 | 31:54.59 | 3:53.05 | 143609 | 161088
12 | 35:47.64 | 2:01.45 | 161089 | 170208
13 | 37:49.34 | 6:04.12 | 170209 | 197520
14 | 43:53.46 | 2:01.17 | 197521 | 206612
15 | 45:54.63 | 1:10.06 | 206613 | 211868
16 | 47:04.69 | 4:20.65 | 211869 | 231433
17 | 51:25.59 | 3:51.33 | 231434 | 248791
18 | 55:17.17 | 0:53.31 | 248792 | 252797
19 | 56:10.48 | 3:04.47 | 252798 | 266644
20 | 59:15.20 | 4:40.54 | 266645 | 287698
21 | 63:55.74 | 1:42.18 | 287699 | 295366
22 | 65:38.17 | 4:07.23 | 295367 | 313914
Range status and errors
Selected range
Filename C:\Documents and Settings\User.X-TEAM\Мои документы\Berlioz - La Damnation de Faust (Markevitch) CD1.wav
Peak level 100.0 %
Extraction speed 2.8 X
Range quality 99.9 %
Test CRC D66EE3A1
Copy CRC D66EE3A1
Copy OK
No errors occurred
AccurateRip summary
Track 1 not present in database
Track 2 not present in database
Track 3 not present in database
Track 4 not present in database
Track 5 not present in database
Track 6 not present in database
Track 7 not present in database
Track 8 not present in database
Track 9 not present in database
Track 10 not present in database
Track 11 not present in database
Track 12 not present in database
Track 13 not present in database
Track 14 not present in database
Track 15 not present in database
Track 16 not present in database
Track 17 not present in database
Track 18 not present in database
Track 19 not present in database
Track 20 not present in database
Track 21 not present in database
Track 22 not present in database
None of the tracks are present in the AccurateRip database
End of status report
==== Log checksum DF8886CCBC6B95E7DC34C3B05B1298327D7714ABF92B5296E31C3966599BA537 ====

Содержание индексной карты (.CUE)

REM GENRE Classical
REM DATE 2010
REM DISCID 50105916
REM COMMENT "ExactAudioCopy v1.0b3"
PERFORMER "N.Gedda, R.Crespin, E.Blanc, L.Morin; Orchestre Nationa de la RTF - I.Markevitch"
TITLE "Berlioz - La Damnation de Faust CD1"
FILE "Berlioz - La Damnation de Faust (Markevitch) CD1.flac" WAVE
TRACK 01 AUDIO
TITLE "PREMIER PARTIE: La viel hiver a fait palce au pintemps"
PERFORMER "N.Gedda, R.Crespin, E.Blanc, L.Morin; Orchestre Nationa de la RTF - I.Markevitch"
INDEX 01 00:00:00
TRACK 02 AUDIO
TITLE "Les bergers laissent leurs troupeaux"
PERFORMER "N.Gedda, R.Crespin, E.Blanc, L.Morin; Orchestre Nationa de la RTF - I.Markevitch"
INDEX 01 05:45:57
TRACK 03 AUDIO
TITLE "Mais d'un eclat guerrier les campagnes"
PERFORMER "N.Gedda, R.Crespin, E.Blanc, L.Morin; Orchestre Nationa de la RTF - I.Markevitch"
INDEX 01 09:16:05
TRACK 04 AUDIO
TITLE "Marche Hongroise"
PERFORMER "N.Gedda, R.Crespin, E.Blanc, L.Morin; Orchestre Nationa de la RTF - I.Markevitch"
INDEX 01 09:59:30
TRACK 05 AUDIO
TITLE "DEUXIEME PARTIE: Sans regrets j'ai quite les riantes"
PERFORMER "N.Gedda, R.Crespin, E.Blanc, L.Morin; Orchestre Nationa de la RTF - I.Markevitch"
INDEX 01 14:35:64
TRACK 06 AUDIO
TITLE "Christ vient de ressuciter"
PERFORMER "N.Gedda, R.Crespin, E.Blanc, L.Morin; Orchestre Nationa de la RTF - I.Markevitch"
INDEX 01 18:58:39
TRACK 07 AUDIO
TITLE "Helas! Doux chants du ciel"
PERFORMER "N.Gedda, R.Crespin, E.Blanc, L.Morin; Orchestre Nationa de la RTF - I.Markevitch"
INDEX 01 21:42:28
TRACK 08 AUDIO
TITLE "A boire encor du vin du Rhin"
PERFORMER "N.Gedda, R.Crespin, E.Blanc, L.Morin; Orchestre Nationa de la RTF - I.Markevitch"
INDEX 01 24:48:65
TRACK 09 AUDIO
TITLE "Certain rat, dans une cuisine"
PERFORMER "N.Gedda, R.Crespin, E.Blanc, L.Morin; Orchestre Nationa de la RTF - I.Markevitch"
INDEX 01 27:24:38
TRACK 10 AUDIO
TITLE "Vrai Dieu, messieurs"
PERFORMER "N.Gedda, R.Crespin, E.Blanc, L.Morin; Orchestre Nationa de la RTF - I.Markevitch"
INDEX 01 30:47:72
TRACK 11 AUDIO
TITLE "Une puce gentille"
PERFORMER "N.Gedda, R.Crespin, E.Blanc, L.Morin; Orchestre Nationa de la RTF - I.Markevitch"
INDEX 01 31:54:59
TRACK 12 AUDIO
TITLE "Voici des roses de cette buit"
PERFORMER "N.Gedda, R.Crespin, E.Blanc, L.Morin; Orchestre Nationa de la RTF - I.Markevitch"
INDEX 01 35:47:64
TRACK 13 AUDIO
TITLE "Dors, heureux Faust, dors!"
PERFORMER "N.Gedda, R.Crespin, E.Blanc, L.Morin; Orchestre Nationa de la RTF - I.Markevitch"
INDEX 01 37:49:34
TRACK 14 AUDIO
TITLE "Ballet des Sylphes"
PERFORMER "N.Gedda, R.Crespin, E.Blanc, L.Morin; Orchestre Nationa de la RTF - I.Markevitch"
INDEX 01 43:53:46
TRACK 15 AUDIO
TITLE "Margarita! Qu'ai-je vu?"
PERFORMER "N.Gedda, R.Crespin, E.Blanc, L.Morin; Orchestre Nationa de la RTF - I.Markevitch"
INDEX 01 45:54:63
TRACK 16 AUDIO
TITLE "Villes entourees de murs et remparts"
PERFORMER "N.Gedda, R.Crespin, E.Blanc, L.Morin; Orchestre Nationa de la RTF - I.Markevitch"
INDEX 01 47:04:69
TRACK 17 AUDIO
TITLE "TROISIEME PARTIE: Merci, doux crepuscule!"
PERFORMER "N.Gedda, R.Crespin, E.Blanc, L.Morin; Orchestre Nationa de la RTF - I.Markevitch"
INDEX 01 51:25:59
TRACK 18 AUDIO
TITLE "Je l'entends!"
PERFORMER "N.Gedda, R.Crespin, E.Blanc, L.Morin; Orchestre Nationa de la RTF - I.Markevitch"
INDEX 01 55:17:17
TRACK 19 AUDIO
TITLE "Que l'air est etouffant!"
PERFORMER "N.Gedda, R.Crespin, E.Blanc, L.Morin; Orchestre Nationa de la RTF - I.Markevitch"
INDEX 01 56:10:48
TRACK 20 AUDIO
TITLE "Autrefois un roi de Thule"
PERFORMER "N.Gedda, R.Crespin, E.Blanc, L.Morin; Orchestre Nationa de la RTF - I.Markevitch"
INDEX 01 59:15:20
TRACK 21 AUDIO
TITLE "Esprits des flammes inconstantes"
PERFORMER "N.Gedda, R.Crespin, E.Blanc, L.Morin; Orchestre Nationa de la RTF - I.Markevitch"
INDEX 01 63:55:74
TRACK 22 AUDIO
TITLE "Menuet des follets"
PERFORMER "N.Gedda, R.Crespin, E.Blanc, L.Morin; Orchestre Nationa de la RTF - I.Markevitch"
INDEX 01 65:38:17

CD2

Hector Berlioz - »La Damnation de Faust«
[1] Maintenant, chantons à cette belle
[2] Devant la maison de celui
[3] Grand Dieu! Que vois-je?
[4] Ange adoré dont la céleste image
[5] QUATRIEME PARTIE: D'amour, l'ardente flamme
[6] Au son des trompettes
[7] A la voûte azurée aperçois-tu
[8] Alors l'enfer se tut
[9] Laus! Hosanna
[BONUS] G.Bizet - »Carmen«:
[10] Quels regards! Quelle effronterie!..
[11] Parle-moi de ma mère!
[12] Ma mère, je la vois!..
[13] Reste là, maintenant
[14] Que se passe-t-il donc là-bas
[15] Mon officier, c'était une querelle
[16] Près des remparts de Séville
[17] Voici l'ordre

Don José - Nicolai Gedda | Zuniga - Frederick Guthrie | Carmen - Giulietta Simionato | Micaёla - Hilde Güden
Wiener Symphoniker - Herbert von Karajan

Лог создания рипа

Exact Audio Copy V1.0 beta 3 from 29. August 2011
EAC extraction logfile from 28. April 2013, 19:08
Igor Markevitch / Berlioz - La Damnation de Faust CD2
Used drive : COMPAQ CD-ROM LTN403 Adapter: 0 ID: 0
Read mode : Secure
Utilize accurate stream : Yes
Defeat audio cache : Yes
Make use of C2 pointers : No
Read offset correction : -1164
Overread into Lead-In and Lead-Out : Yes
Fill up missing offset samples with silence : Yes
Delete leading and trailing silent blocks : No
Null samples used in CRC calculations : Yes
Used interface : Native Win32 interface for Win NT & 2000
Used output format : User Defined Encoder
Selected bitrate : 128 kBit/s
Quality : High
Add ID3 tag : No
Command line compressor : C:\Program Files\FLAC\flac.exe
Additional command line options : -T "COMMENT=rip by el coronel, rutracker.org" -8 -V %source%
TOC of the extracted CD
Track | Start | Length | Start sector | End sector
---------------------------------------------------------
1 | 0:00.00 | 0:27.67 | 0 | 2091
2 | 0:27.67 | 1:55.69 | 2092 | 10785
3 | 2:23.61 | 0:47.41 | 10786 | 14351
4 | 3:11.27 | 8:48.23 | 14352 | 53974
5 | 11:59.50 | 8:03.49 | 53975 | 90248
6 | 20:03.24 | 2:25.31 | 90249 | 101154
7 | 22:28.55 | 9:02.73 | 101155 | 141877
8 | 31:31.53 | 1:00.07 | 141878 | 146384
9 | 32:31.60 | 4:18.57 | 146385 | 165791
10 | 36:50.42 | 1:04.55 | 165792 | 170646
11 | 37:55.22 | 3:32.19 | 170647 | 186565
12 | 41:27.41 | 5:22.26 | 186566 | 210741
13 | 46:49.67 | 1:34.23 | 210742 | 217814
14 | 48:24.15 | 3:00.34 | 217815 | 231348
15 | 51:24.49 | 4:02.50 | 231349 | 249548
16 | 55:27.24 | 4:04.74 | 249549 | 267922
17 | 59:32.23 | 1:55.57 | 267923 | 276604
Range status and errors
Selected range
Filename C:\Documents and Settings\User.X-TEAM\Мои документы\Berlioz - La Damnation de Faust (Markevitch) CD2.wav
Peak level 100.0 %
Extraction speed 3.0 X
Range quality 99.9 %
Test CRC 9A94EAA4
Copy CRC 9A94EAA4
Copy OK
No errors occurred
AccurateRip summary
Track 1 not present in database
Track 2 not present in database
Track 3 not present in database
Track 4 not present in database
Track 5 not present in database
Track 6 not present in database
Track 7 not present in database
Track 8 not present in database
Track 9 not present in database
Track 10 not present in database
Track 11 not present in database
Track 12 not present in database
Track 13 not present in database
Track 14 not present in database
Track 15 not present in database
Track 16 not present in database
Track 17 not present in database
None of the tracks are present in the AccurateRip database
End of status report
==== Log checksum 15D1488BB1CF2FEB19CD61A10F22A4287381CEB8BB21ACB135020DCA29A1CA09 ====

Содержание индексной карты (.CUE)

REM GENRE Classical
REM DATE 2010
REM DISCID E80E6811
REM COMMENT "ExactAudioCopy v1.0b3"
PERFORMER "N.Gedda, R.Crespin, E.Blanc, L.Morin; Orchestre National de la RTF - I.Markevitch"
TITLE "Berlioz - La Damnation de Faust CD2"
FILE "Berlioz - La Damnation de Faust (Markevitch) CD2.flac" WAVE
TRACK 01 AUDIO
TITLE "Maintenant, chantons a cette belle"
PERFORMER "N.Gedda, R.Crespin, E.Blanc, L.Morin; Orchestre National de la RTF - I.Markevitch"
INDEX 01 00:00:00
TRACK 02 AUDIO
TITLE "Devant la maison de celui"
PERFORMER "N.Gedda, R.Crespin, E.Blanc, L.Morin; Orchestre National de la RTF - I.Markevitch"
INDEX 01 00:27:67
TRACK 03 AUDIO
TITLE "Grand Dieu! Que vois-je?"
PERFORMER "N.Gedda, R.Crespin, E.Blanc, L.Morin; Orchestre National de la RTF - I.Markevitch"
INDEX 01 02:23:61
TRACK 04 AUDIO
TITLE "Ange adore dont la celeste image"
PERFORMER "N.Gedda, R.Crespin, E.Blanc, L.Morin; Orchestre National de la RTF - I.Markevitch"
INDEX 01 03:11:27
TRACK 05 AUDIO
TITLE "QUATRIEME PARTIE: D'amour, l'ardente flamme"
PERFORMER "N.Gedda, R.Crespin, E.Blanc, L.Morin; Orchestre National de la RTF - I.Markevitch"
INDEX 01 11:59:50
TRACK 06 AUDIO
TITLE "Au son des trompettes"
PERFORMER "N.Gedda, R.Crespin, E.Blanc, L.Morin; Orchestre National de la RTF - I.Markevitch"
INDEX 01 20:03:24
TRACK 07 AUDIO
TITLE "A la voute azuree apercois-tu"
PERFORMER "N.Gedda, R.Crespin, E.Blanc, L.Morin; Orchestre National de la RTF - I.Markevitch"
INDEX 01 22:28:55
TRACK 08 AUDIO
TITLE "Alors l'enfer se tut"
PERFORMER "N.Gedda, R.Crespin, E.Blanc, L.Morin; Orchestre National de la RTF - I.Markevitch"
INDEX 01 31:31:53
TRACK 09 AUDIO
TITLE "Laus! Hosanna"
PERFORMER "N.Gedda, R.Crespin, E.Blanc, L.Morin; Orchestre National de la RTF - I.Markevitch"
INDEX 01 32:31:60
TRACK 10 AUDIO
TITLE "[BONUS] G.Bizet - 'Carmen': Quels regards! Quelle effronterie!.."
PERFORMER "N.Gedda; Wiener Symphoniker - H. von Karajan"
INDEX 00 36:42:42
INDEX 01 36:50:42
TRACK 11 AUDIO
TITLE "Parle-moi de ma mere!"
PERFORMER "N.Gedda; Wiener Symphoniker - H. von Karajan"
INDEX 01 37:55:22
TRACK 12 AUDIO
TITLE "Ma mere, je la vois!.."
PERFORMER "N.Gedda; Wiener Symphoniker - H. von Karajan"
INDEX 01 41:27:41
TRACK 13 AUDIO
TITLE "Reste la, maintenant"
PERFORMER "N.Gedda; Wiener Symphoniker - H. von Karajan"
INDEX 00 46:49:47
INDEX 01 46:49:67
TRACK 14 AUDIO
TITLE "Que se passe-t-il donc la-bas"
PERFORMER "N.Gedda; Wiener Symphoniker - H. von Karajan"
INDEX 01 48:24:15
TRACK 15 AUDIO
TITLE "Mon officier, c'etait une querelle"
PERFORMER "N.Gedda; Wiener Symphoniker - H. von Karajan"
INDEX 01 51:24:49
TRACK 16 AUDIO
TITLE "Pres des remparts de Seville"
PERFORMER "N.Gedda; Wiener Symphoniker - H. von Karajan"
INDEX 01 55:27:24
TRACK 17 AUDIO
TITLE "Voici l'ordre"
PERFORMER "N.Gedda; Wiener Symphoniker - H. von Karajan"
INDEX 00 59:32:03
INDEX 01 59:32:23
Исполнители:
Faust - Nicolai Gedda | Marguerite - Régine Crespin | Méphistophélès - Ernest Blanc | Brander - Louis Morin
Choeur et Orchestre National de la RTF - Igor Markevitch-
[teatrix.ru].t18303.torrent 
Торрент: Зарегистрирован [ 2016-03-17 00:39 ] · B6864C50D216061C1B04495937274108CC97DAD0

Скачать .torrent

Скачать

13 KB

Статус: проверено
Скачан: 0 раз
Размер: 319 MB
terms.php



Быстрый ответ

Имя:

      
Для отправки сообщений необходимо включить JavaScript
Показать сообщения:    

Текущее время: 04-Дек 17:19

Часовой пояс: UTC + 3


Вы можете начинать темы
Вы можете отвечать на сообщения
Вы не можете редактировать свои сообщения
Вы не можете удалять свои сообщения
Вы не можете голосовать в опросах
Вы не можете прикреплять файлы к сообщениям
Вы можете скачивать файлы