(Classical, sacred) Marc-Antoine Charpentier - Pastorale de Noel; In Nativitatem - Les Arts Florissants, William Christie - 2011, FLAC (image+.cue) lossless


Статистика раздачи [Обновить пиров]
Размер:  306 MB   |    Зарегистрирован:  10 месяцев 1 день   |    Скачан:  0 раз

Полного источника не было: Никогда

 
   
 
 
 

[Цитировать]

Marc-Antoine Charpentier - Pastorale de Noël; In Nativitatem - Les Arts Florissants, William Christie
Жанр: Classical, sacred
Страна-производитель диска: France
Год издания диска: 2011
Издатель (лейбл): Harmonia Mundi
Номер по каталогу: HMX2921082
Дата записи: 1981, 1982
Аудиокодек: FLAC
Тип рипа: image+.cue
Битрейт аудио: lossless
Продолжительность: 57:04
Источник: собственный рип
Наличие сканов в содержимом раздачи: да
Треклист:
Marc-Antoine Charpentier (1643-1704)
[1]-[12] Pastorale sur la naissance de N.S.Jésus-Christ, H.483
[13]-[18] In Nativitatem D.N.J.C. Canticum, H.414
Исполнители:
Les Arts Florissants
William Christie

Лог создания рипа

Exact Audio Copy V1.0 beta 3 from 29. August 2011
EAC extraction logfile from 12. February 2014, 18:07
Les Arts Florissants, William Christie / Charpentier - Pastorale de Noel
Used drive : HL-DT-STDVDRRW GWA-4164B Adapter: 5 ID: 0
Read mode : Secure
Utilize accurate stream : Yes
Defeat audio cache : Yes
Make use of C2 pointers : No
Read offset correction : 102
Overread into Lead-In and Lead-Out : No
Fill up missing offset samples with silence : Yes
Delete leading and trailing silent blocks : No
Null samples used in CRC calculations : Yes
Used interface : Native Win32 interface for Win NT & 2000
Used output format : User Defined Encoder
Selected bitrate : 896 kBit/s
Quality : High
Add ID3 tag : No
Command line compressor : C:\Program Files\Exact Audio Copy\FLAC\FLAC.EXE
Additional command line options : -V -8 %source%
TOC of the extracted CD
Track | Start | Length | Start sector | End sector
---------------------------------------------------------
1 | 0:00.00 | 1:20.12 | 0 | 6011
2 | 1:20.12 | 1:34.28 | 6012 | 13089
3 | 2:54.40 | 3:14.30 | 13090 | 27669
4 | 6:08.70 | 4:30.67 | 27670 | 47986
5 | 10:39.62 | 1:19.20 | 47987 | 53931
6 | 11:59.07 | 2:18.65 | 53932 | 64346
7 | 14:17.72 | 5:19.23 | 64347 | 88294
8 | 19:37.20 | 3:57.25 | 88295 | 106094
9 | 23:34.45 | 2:47.32 | 106095 | 118651
10 | 26:22.02 | 4:56.65 | 118652 | 140916
11 | 31:18.67 | 5:07.68 | 140917 | 164009
12 | 36:26.60 | 5:26.55 | 164010 | 188514
13 | 41:53.40 | 0:58.52 | 188515 | 192916
14 | 42:52.17 | 1:40.40 | 192917 | 200456
15 | 44:32.57 | 3:35.55 | 200457 | 216636
16 | 48:08.37 | 1:16.68 | 216637 | 222404
17 | 49:25.30 | 1:14.15 | 222405 | 227969
18 | 50:39.45 | 6:24.72 | 227970 | 256841
Range status and errors
Selected range
Filename D:\temp\Music\Charpentier - Pastorale de Noel\Charpentier - Pastorale de Noel.wav
Peak level 100.0 %
Extraction speed 3.5 X
Range quality 99.9 %
Test CRC 1B76CD8C
Copy CRC 1B76CD8C
Copy OK
No errors occurred
AccurateRip summary
Track 1 accurately ripped (confidence 2) [8C15FBCD] (AR v2)
Track 2 accurately ripped (confidence 2) [381A685E] (AR v2)
Track 3 accurately ripped (confidence 2) [3E134A92] (AR v2)
Track 4 accurately ripped (confidence 2) [7343071C] (AR v2)
Track 5 accurately ripped (confidence 2) [3B74074D] (AR v2)
Track 6 accurately ripped (confidence 2) [9FC829D8] (AR v2)
Track 7 accurately ripped (confidence 2) [D57A6411] (AR v2)
Track 8 accurately ripped (confidence 2) [5432DF72] (AR v2)
Track 9 accurately ripped (confidence 2) [9AA6E8FF] (AR v2)
Track 10 accurately ripped (confidence 2) [26C152E5] (AR v2)
Track 11 accurately ripped (confidence 2) [B1A93F65] (AR v2)
Track 12 accurately ripped (confidence 2) [D570D441] (AR v2)
Track 13 accurately ripped (confidence 2) [129F42F7] (AR v2)
Track 14 accurately ripped (confidence 2) [38B0D80A] (AR v2)
Track 15 accurately ripped (confidence 2) [8F2CD988] (AR v2)
Track 16 accurately ripped (confidence 2) [37E46A6C] (AR v2)
Track 17 accurately ripped (confidence 2) [5C222819] (AR v2)
Track 18 accurately ripped (confidence 2) [4903E308] (AR v2)
All tracks accurately ripped
End of status report
==== Log checksum 812B4DC42FF4376396C31BBDE2A25A11557337B650C87FD00F3359CB6732A26E ====
[teatrix.ru].t18309.torrent 
Торрент: Зарегистрирован [ 2016-03-17 00:39 ] · 6CD6015CDBAB35A52AD52F897199982A97E2CE93

Скачать .torrent

Скачать

26 KB

Статус: проверено
Скачан: 0 раз
Размер: 306 MB
terms.php



Быстрый ответ

Имя:

      
Для отправки сообщений необходимо включить JavaScript
Показать сообщения:    

Текущее время: 18-Янв 02:33

Часовой пояс: UTC + 3


Вы можете начинать темы
Вы можете отвечать на сообщения
Вы не можете редактировать свои сообщения
Вы не можете удалять свои сообщения
Вы не можете голосовать в опросах
Вы не можете прикреплять файлы к сообщениям
Вы можете скачивать файлы