(Baroque Oratorio) Stradella - Santa Pelagia (Antonaz, Carmignani, Furnari, Testolin - Musici di Santa Pelagia, Fornero) - 2007, APE (image+.cue) lossless


Статистика раздачи [Обновить пиров]
Размер:  281 MB   |    Зарегистрирован:  10 месяцев 4 дня   |    Скачан:  0 раз

Полного источника не было: Никогда

 
   
 
 
 

[Цитировать]

Stradella - Santa Pelagia, Oratorio a quattro voci e instrumenti
Жанр: Oratorio
Страна-производитель диска: Italy
Год издания диска: 2007
Издатель (лейбл): Stradivarius
Номер по каталогу: 33752
Дата записи: 2006
Аудиокодек: APE
Тип рипа: image+.cue
Битрейт аудио: lossless
Продолжительность: 66'27
Источник: собственный рип
Наличие сканов в содержимом раздачи: да
Треклист:
1. Sinfonia
2. Qui dove faccia ai fiori
3. Ermi tronchi, annose piante
4. Pelagia, bellisssima donzella
5. Mentre april t'infiora il seno
6. Segui le nostre strade
7. Struggi l'alma un non so che
8. Penso, ahi lassa, e il pensiero
9. Quel fiore labile
10. E tributaria sol fassi dal cielo
11. Per destare orrida guerra
12. Io così vilipeso
13. Vedi in calma il mar placato
14. Tali del regno tuo
15. Empio no, nol crederò
16. Ma già vinto tu sei
17. Ah cieli codardi
18. Mentre serve Pelagia
19. Ah sfere guerriere
20. Me, me presente: Io sono
21. Saette e fulmini
22. Porto in man guerra e pace
23. Agl'assalti di teneri accenti
24. Quanto è cara, quanto è bella
25. Oh come, oh quanto vago
26. Godo s'di gemme e d'ori
27. Quanto mi alletta invero
28. Sono i crini aurati stami
29. Sono dolci i miei sguardi
30. Le pupille son faville
31. Qual ape studiosa
32. Quanto è dolce con due guardi
33. Che saette, che strali?
34. Quanto crudo il nume
35. T'ingranni se tu credi
36. Sì presumo, o vaghe stelle
37. Pelagia! Mio monarca
38. Abbatto combatto
39. E il mio fulgido guardo
40. Tu che abbatti e combatti
41. Ah no, basta il pensiero
42. Dal polo con volo
43. Meco dunque t'adopra
44. Festeggiate e con trombe
45. Corran nettare i ruscelli
46. Festeggiate
47. Si peccai, ma questo fonte
48. Già con sagrato fonte
49. E'follia pugnar con gl'astri
50. Parto ai boschi romiti
51. Oh del polo calpestato
52. Al tu merto inesausto
53. Pace a voi, selvagge rupi
54. Qui solitaria la fine
55. Mio Monarca, eccoti il corИсполнители:
Alessandro Stradella - Santa Pelagia
Oratorio a quattro voci e instrumenti
Laura Antonaz (sopraan)
Alessandro Carmignani (countertenor)
Fabio Furnari (tenor)
Walter Testolin (bas)
Festina Lente
Musici di Santa Pelagia
Maurizio Fornero

Лог создания рипа

Exact Audio Copy V1.0 beta 3 from 29. August 2011
EAC extraction logfile from 5. April 2014, 12:23
Stradella / Santa Pelagia, Fornero 2006
Used drive : TSSTcorpCDDVDW SE-208AB Adapter: 1 ID: 0
Read mode : Secure
Utilize accurate stream : Yes
Defeat audio cache : Yes
Make use of C2 pointers : No
Read offset correction : 6
Overread into Lead-In and Lead-Out : No
Fill up missing offset samples with silence : Yes
Delete leading and trailing silent blocks : No
Null samples used in CRC calculations : Yes
Used interface : Native Win32 interface for Win NT & 2000
Used output format : Monkey's Audio Lossless Encoder
Selected bitrate : High Lossless Compression
Quality : High
Add ID3 tag : Yes
Command line compressor : C:\Program Files (x86)\Monkey's Audio\MAC.exe
Additional command line options : %dest% -t "Artist=%artist%" -t "Title=%title%" -t "Album=%albumtitle%" -t "Year=%year%" -t "Track=%tracknr%" -t "Genre=%genre%" mac.exe %source% %dest% -c3000 -v
TOC of the extracted CD
Track | Start | Length | Start sector | End sector
---------------------------------------------------------
1 | 0:00.00 | 3:36.45 | 0 | 16244
2 | 3:36.45 | 1:03.05 | 16245 | 20974
3 | 4:39.50 | 3:28.36 | 20975 | 36610
4 | 8:08.11 | 1:14.46 | 36611 | 42206
5 | 9:22.57 | 2:24.59 | 42207 | 53065
6 | 11:47.41 | 1:09.66 | 53066 | 58306
7 | 12:57.32 | 1:50.37 | 58307 | 66593
8 | 14:47.69 | 0:47.44 | 66594 | 70162
9 | 15:35.38 | 2:14.25 | 70163 | 80237
10 | 17:49.63 | 0:49.01 | 80238 | 83913
11 | 18:38.64 | 1:42.02 | 83914 | 91565
12 | 20:20.66 | 0:31.65 | 91566 | 93955
13 | 20:52.56 | 0:59.64 | 93956 | 98444
14 | 21:52.45 | 1:00.09 | 98445 | 102953
15 | 22:52.54 | 1:49.30 | 102954 | 111158
16 | 24:42.09 | 0:25.55 | 111159 | 113088
17 | 25:07.64 | 0:40.34 | 113089 | 116122
18 | 25:48.23 | 0:04.53 | 116123 | 116475
19 | 25:53.01 | 0:35.69 | 116476 | 119169
20 | 26:28.70 | 0:17.22 | 119170 | 120466
21 | 26:46.17 | 1:01.29 | 120467 | 125070
22 | 27:47.46 | 0:42.09 | 125071 | 128229
23 | 28:29.55 | 3:28.20 | 128230 | 143849
24 | 31:58.00 | 1:52.30 | 143850 | 152279
25 | 33:50.30 | 0:58.19 | 152280 | 156648
26 | 34:48.49 | 1:28.63 | 156649 | 163311
27 | 36:17.37 | 0:50.17 | 163312 | 167078
28 | 37:07.54 | 1:50.69 | 167079 | 175397
29 | 38:58.48 | 0:13.18 | 175398 | 176390
30 | 39:11.66 | 1:20.33 | 176391 | 182423
31 | 40:32.24 | 0:48.29 | 182424 | 186052
32 | 41:20.53 | 1:49.03 | 186053 | 194230
33 | 43:09.56 | 0:44.25 | 194231 | 197555
34 | 43:54.06 | 1:10.19 | 197556 | 202824
35 | 45:04.25 | 0:49.67 | 202825 | 206566
36 | 45:54.17 | 2:08.50 | 206567 | 216216
37 | 48:02.67 | 1:09.28 | 216217 | 221419
38 | 49:12.20 | 0:46.64 | 221420 | 224933
39 | 49:59.09 | 1:24.20 | 224934 | 231253
40 | 51:23.29 | 1:26.61 | 231254 | 237764
41 | 52:50.15 | 0:39.29 | 237765 | 240718
42 | 53:29.44 | 0:44.31 | 240719 | 244049
43 | 54:14.00 | 0:12.29 | 244050 | 244978
44 | 54:26.29 | 0:35.70 | 244979 | 247673
45 | 55:02.24 | 1:36.00 | 247674 | 254873
46 | 56:38.24 | 1:21.60 | 254874 | 261008
47 | 58:00.09 | 1:24.00 | 261009 | 267308
48 | 59:24.09 | 0:56.54 | 267309 | 271562
49 | 60:20.63 | 0:30.45 | 271563 | 273857
50 | 60:51.33 | 0:19.44 | 273858 | 275326
51 | 61:11.02 | 0:47.39 | 275327 | 278890
52 | 61:58.41 | 0:10.59 | 278891 | 279699
53 | 62:09.25 | 0:57.33 | 279700 | 284007
54 | 63:06.58 | 0:50.47 | 284008 | 287804
55 | 63:57.30 | 2:30.35 | 287805 | 299089
Range status and errors
Selected range
Filename E:\Foobar-EAC\Stradella - Santa Pelagia, Fornero 2006.wav
Peak level 94.9 %
Extraction speed 4.8 X
Range quality 100.0 %
Test CRC E75CCFF5
Copy CRC E75CCFF5
Copy OK
No errors occurred
AccurateRip summary
Track 1 accurately ripped (confidence 1) [6F73F33C] (AR v2)
Track 2 accurately ripped (confidence 1) [B633F026] (AR v2)
Track 3 accurately ripped (confidence 1) [5E7271C4] (AR v2)
Track 4 accurately ripped (confidence 1) [00AAE5C9] (AR v2)
Track 5 accurately ripped (confidence 1) [6EB33EC3] (AR v2)
Track 6 accurately ripped (confidence 1) [39B33193] (AR v2)
Track 7 accurately ripped (confidence 1) [C3CBAA9D] (AR v2)
Track 8 accurately ripped (confidence 1) [53F82735] (AR v2)
Track 9 accurately ripped (confidence 1) [40652670] (AR v2)
Track 10 accurately ripped (confidence 1) [EB49650C] (AR v2)
Track 11 accurately ripped (confidence 1) [F40993F5] (AR v2)
Track 12 accurately ripped (confidence 1) [786B03A1] (AR v2)
Track 13 accurately ripped (confidence 1) [ACD8C8BB] (AR v2)
Track 14 accurately ripped (confidence 1) [9724B7BC] (AR v2)
Track 15 accurately ripped (confidence 1) [6ECB355B] (AR v2)
Track 16 accurately ripped (confidence 1) [BAD21D66] (AR v2)
Track 17 accurately ripped (confidence 1) [88E68E6D] (AR v2)
Track 18 not present in database
Track 19 accurately ripped (confidence 1) [EA501F75] (AR v2)
Track 20 accurately ripped (confidence 1) [296D47AA] (AR v2)
Track 21 accurately ripped (confidence 1) [2965E6FF] (AR v2)
Track 22 accurately ripped (confidence 1) [28FB9CE2] (AR v2)
Track 23 accurately ripped (confidence 1) [A78C3BD1] (AR v2)
Track 24 accurately ripped (confidence 1) [623D5D78] (AR v2)
Track 25 accurately ripped (confidence 1) [415A756D] (AR v2)
Track 26 accurately ripped (confidence 1) [8754118C] (AR v2)
Track 27 accurately ripped (confidence 1) [D44FC8D5] (AR v2)
Track 28 accurately ripped (confidence 1) [DD8572DA] (AR v2)
Track 29 accurately ripped (confidence 1) [51ECDAE4] (AR v2)
Track 30 accurately ripped (confidence 1) [C7B1F893] (AR v2)
Track 31 accurately ripped (confidence 1) [385E0969] (AR v2)
Track 32 accurately ripped (confidence 1) [2FD49BFA] (AR v2)
Track 33 accurately ripped (confidence 1) [89698CB4] (AR v2)
Track 34 accurately ripped (confidence 1) [8D9AC613] (AR v2)
Track 35 accurately ripped (confidence 1) [7416BD9D] (AR v2)
Track 36 accurately ripped (confidence 1) [233AF80F] (AR v2)
Track 37 accurately ripped (confidence 1) [33A570AF] (AR v2)
Track 38 accurately ripped (confidence 1) [07AFCDD4] (AR v2)
Track 39 accurately ripped (confidence 1) [80D7824A] (AR v2)
Track 40 accurately ripped (confidence 1) [72CD2AEB] (AR v2)
Track 41 accurately ripped (confidence 1) [20482C4A] (AR v2)
Track 42 accurately ripped (confidence 1) [A6E4D12F] (AR v2)
Track 43 accurately ripped (confidence 1) [3A79E90E] (AR v2)
Track 44 accurately ripped (confidence 1) [0976001C] (AR v2)
Track 45 accurately ripped (confidence 1) [4A4CAC34] (AR v2)
Track 46 accurately ripped (confidence 1) [27399657] (AR v2)
Track 47 accurately ripped (confidence 1) [8AB7884D] (AR v2)
Track 48 accurately ripped (confidence 1) [5513B085] (AR v2)
Track 49 accurately ripped (confidence 1) [DB1C3D3B] (AR v2)
Track 50 accurately ripped (confidence 1) [F9648B65] (AR v2)
Track 51 accurately ripped (confidence 1) [656A6FED] (AR v2)
Track 52 accurately ripped (confidence 1) [DD43066A] (AR v2)
Track 53 accurately ripped (confidence 1) [7864AC21] (AR v2)
Track 54 accurately ripped (confidence 1) [29B50F3A] (AR v2)
Track 55 accurately ripped (confidence 1) [274EC57F] (AR v2)
54 track(s) accurately ripped
1 track(s) not present in the AccurateRip database
Some tracks could not be verified as accurate
End of status report
---- CUETools DB Plugin V2.1.3
[CTDB TOCID: WcIDfBaWBGsvu9pKXf1yhBWCvss-] disk not present in database, Submit result: WcIDfBaWBGsvu9pKXf1yhBWCvss- has been uploaded
==== Log checksum 58FEAADE6BA7D7421754B8BC28D0826BBAA1A907F684FD919F51E621ACA41F1E ====

Содержание индексной карты (.CUE)

REM GENRE Oratorio
REM DATE 2006
REM DISCID 1A0F9337
REM COMMENT "ExactAudioCopy v1.0b3"
PERFORMER "Stradella"
TITLE "Santa Pelagia, Fornero 2006"
FILE "Stradella - Santa Pelagia, Fornero 2006.ape" WAVE
TRACK 01 AUDIO
TITLE "Sinfonia"
PERFORMER "Stradella"
ISRC ITJ090700749
INDEX 01 00:00:00
TRACK 02 AUDIO
TITLE "Qui dove faccia ai fiori"
PERFORMER "Stradella"
ISRC ITJ090700750
FLAGS DCP
INDEX 01 03:36:45
TRACK 03 AUDIO
TITLE "Ermi tronchi, annose piante"
PERFORMER "Stradella"
ISRC ITJ090700751
FLAGS DCP
INDEX 01 04:39:50
TRACK 04 AUDIO
TITLE "Pelagia, bellisssima donzella"
PERFORMER "Stradella"
ISRC ITJ090700752
FLAGS DCP
INDEX 01 08:08:11
TRACK 05 AUDIO
TITLE "Mentre april t'infiora il seno"
PERFORMER "Stradella"
ISRC ITJ090700753
FLAGS DCP
INDEX 01 09:22:57
TRACK 06 AUDIO
TITLE "Segui le nostre strade"
PERFORMER "Stradella"
ISRC ITJ090700754
FLAGS DCP
INDEX 01 11:47:41
TRACK 07 AUDIO
TITLE "Struggi l'alma un non so che"
PERFORMER "Stradella"
ISRC ITJ090700755
FLAGS DCP
INDEX 01 12:57:32
TRACK 08 AUDIO
TITLE "Penso, ahi lassa, e il pensiero"
PERFORMER "Stradella"
ISRC ITJ090700756
FLAGS DCP
INDEX 01 14:47:69
TRACK 09 AUDIO
TITLE "Quel fiore labile"
PERFORMER "Stradella"
ISRC ITJ090700757
FLAGS DCP
INDEX 01 15:35:38
TRACK 10 AUDIO
TITLE "E tributaria sol fassi dal cielo"
PERFORMER "Stradella"
ISRC ITJ090700758
FLAGS DCP
INDEX 01 17:49:63
TRACK 11 AUDIO
TITLE "Per destare orrida guerra"
PERFORMER "Stradella"
ISRC ITJ090700759
FLAGS DCP
INDEX 01 18:38:64
TRACK 12 AUDIO
TITLE "Io così vilipeso"
PERFORMER "Stradella"
ISRC ITJ090700760
FLAGS DCP
INDEX 01 20:20:66
TRACK 13 AUDIO
TITLE "Vedi in calma il mar placato"
PERFORMER "Stradella"
ISRC ITJ090700761
FLAGS DCP
INDEX 01 20:52:56
TRACK 14 AUDIO
TITLE "Tali del regno tuo"
PERFORMER "Stradella"
ISRC ITJ090700762
FLAGS DCP
INDEX 01 21:52:45
TRACK 15 AUDIO
TITLE "Empio no, nol crederò"
PERFORMER "Stradella"
ISRC ITJ090700763
FLAGS DCP
INDEX 01 22:52:54
TRACK 16 AUDIO
TITLE "Ma già vinto tu sei"
PERFORMER "Stradella"
ISRC ITJ090700764
FLAGS DCP
INDEX 01 24:42:09
TRACK 17 AUDIO
TITLE "Ah cieli codardi"
PERFORMER "Stradella"
ISRC ITJ090700765
FLAGS DCP
INDEX 01 25:07:64
TRACK 18 AUDIO
TITLE "Mentre serve Pelagia"
PERFORMER "Stradella"
ISRC ITJ090700766
FLAGS DCP
INDEX 01 25:48:23
TRACK 19 AUDIO
TITLE "Ah sfere guerriere"
PERFORMER "Stradella"
ISRC ITJ090700767
FLAGS DCP
INDEX 01 25:53:01
TRACK 20 AUDIO
TITLE "Me, me presente: Io sono"
PERFORMER "Stradella"
ISRC ITJ090700768
FLAGS DCP
INDEX 01 26:28:70
TRACK 21 AUDIO
TITLE "Saette e fulmini"
PERFORMER "Stradella"
ISRC ITJ090700769
FLAGS DCP
INDEX 01 26:46:17
TRACK 22 AUDIO
TITLE "Porto in man guerra e pace"
PERFORMER "Stradella"
ISRC ITJ090700770
FLAGS DCP
INDEX 01 27:47:46
TRACK 23 AUDIO
TITLE "Agl'assalti di teneri accenti"
PERFORMER "Stradella"
ISRC ITJ090700771
FLAGS DCP
INDEX 01 28:29:55
TRACK 24 AUDIO
TITLE "Quanto è cara, quanto è bella"
PERFORMER "Stradella"
ISRC ITJ090700772
FLAGS DCP
INDEX 01 31:58:00
TRACK 25 AUDIO
TITLE "Oh come, oh quanto vago"
PERFORMER "Stradella"
ISRC ITJ090700773
FLAGS DCP
INDEX 01 33:50:30
TRACK 26 AUDIO
TITLE "Godo s'di gemme e d'ori"
PERFORMER "Stradella"
ISRC ITJ090700774
FLAGS DCP
INDEX 01 34:48:49
TRACK 27 AUDIO
TITLE "Quanto mi alletta invero"
PERFORMER "Stradella"
ISRC ITJ090700775
FLAGS DCP
INDEX 01 36:17:37
TRACK 28 AUDIO
TITLE "Sono i crini aurati stami"
PERFORMER "Stradella"
ISRC ITJ090700776
FLAGS DCP
INDEX 01 37:07:54
TRACK 29 AUDIO
TITLE "Sono dolci i miei sguardi"
PERFORMER "Stradella"
ISRC ITJ090700777
FLAGS DCP
INDEX 01 38:58:48
TRACK 30 AUDIO
TITLE "Le pupille son faville"
PERFORMER "Stradella"
ISRC ITJ090700778
FLAGS DCP
INDEX 01 39:11:66
TRACK 31 AUDIO
TITLE "Qual ape studiosa"
PERFORMER "Stradella"
ISRC ITJ090700779
FLAGS DCP
INDEX 01 40:32:24
TRACK 32 AUDIO
TITLE "Quanto è dolce con due guardi"
PERFORMER "Stradella"
ISRC ITJ090700780
FLAGS DCP
INDEX 01 41:20:53
TRACK 33 AUDIO
TITLE "Che saette, che strali?"
PERFORMER "Stradella"
ISRC ITJ090700781
FLAGS DCP
INDEX 01 43:09:56
TRACK 34 AUDIO
TITLE "Quanto crudo il nume"
PERFORMER "Stradella"
ISRC ITJ090700782
FLAGS DCP
INDEX 01 43:54:06
TRACK 35 AUDIO
TITLE "T'ingranni se tu credi"
PERFORMER "Stradella"
ISRC ITJ090700783
FLAGS DCP
INDEX 01 45:04:25
TRACK 36 AUDIO
TITLE "Sì presumo, o vaghe stelle"
PERFORMER "Stradella"
ISRC ITJ090700784
FLAGS DCP
INDEX 01 45:54:17
TRACK 37 AUDIO
TITLE "Pelagia! Mio monarca"
PERFORMER "Stradella"
ISRC ITJ090700785
FLAGS DCP
INDEX 01 48:02:67
TRACK 38 AUDIO
TITLE "Abbatto combatto"
PERFORMER "Stradella"
ISRC ITJ090700786
FLAGS DCP
INDEX 01 49:12:20
TRACK 39 AUDIO
TITLE "E il mio fulgido guardo"
PERFORMER "Stradella"
ISRC ITJ090700787
FLAGS DCP
INDEX 01 49:59:09
TRACK 40 AUDIO
TITLE "Tu che abbatti e combatti"
PERFORMER "Stradella"
ISRC ITJ090700788
FLAGS DCP
INDEX 01 51:23:29
TRACK 41 AUDIO
TITLE "Ah no, basta il pensiero"
PERFORMER "Stradella"
ISRC ITJ090700789
FLAGS DCP
INDEX 01 52:50:15
TRACK 42 AUDIO
TITLE "Dal polo con volo"
PERFORMER "Stradella"
ISRC ITJ090700790
FLAGS DCP
INDEX 01 53:29:44
TRACK 43 AUDIO
TITLE "Meco dunque t'adopra"
PERFORMER "Stradella"
ISRC ITJ090700791
FLAGS DCP
INDEX 01 54:14:00
TRACK 44 AUDIO
TITLE "Festeggiate e con trombe"
PERFORMER "Stradella"
ISRC ITJ090700792
FLAGS DCP
INDEX 01 54:26:29
TRACK 45 AUDIO
TITLE "Corran nettare i ruscelli"
PERFORMER "Stradella"
ISRC ITJ090700793
FLAGS DCP
INDEX 01 55:02:24
TRACK 46 AUDIO
TITLE "Festeggiate"
PERFORMER "Stradella"
ISRC ITJ090700794
FLAGS DCP
INDEX 01 56:38:24
TRACK 47 AUDIO
TITLE "Si peccai, ma questo fonte"
PERFORMER "Stradella"
ISRC ITJ090700795
FLAGS DCP
INDEX 01 58:00:09
TRACK 48 AUDIO
TITLE "Già con sagrato fonte"
PERFORMER "Stradella"
ISRC ITJ090700796
FLAGS DCP
INDEX 01 59:24:09
TRACK 49 AUDIO
TITLE "E'follia pugnar con gl'astri"
PERFORMER "Stradella"
ISRC ITJ090700797
FLAGS DCP
INDEX 01 60:20:63
TRACK 50 AUDIO
TITLE "Parto ai boschi romiti"
PERFORMER "Stradella"
ISRC ITJ090700798
FLAGS DCP
INDEX 01 60:51:33
TRACK 51 AUDIO
TITLE "Oh del polo calpestato"
PERFORMER "Stradella"
ISRC ITJ090700799
FLAGS DCP
INDEX 01 61:11:02
TRACK 52 AUDIO
TITLE "Al tu merto inesausto"
PERFORMER "Stradella"
ISRC ITJ090700800
FLAGS DCP
INDEX 01 61:58:41
TRACK 53 AUDIO
TITLE "Pace a voi, selvagge rupi"
PERFORMER "Stradella"
ISRC ITJ090700800
FLAGS DCP
INDEX 01 62:09:25
TRACK 54 AUDIO
TITLE "Qui solitaria la fine"
PERFORMER "Stradella"
ISRC ITJ090700801
FLAGS DCP
INDEX 01 63:06:58
TRACK 55 AUDIO
TITLE "Mio Monarca, eccoti il cor"
PERFORMER "Stradella"
ISRC ITJ090700803
FLAGS DCP
INDEX 01 63:57:30
[teatrix.ru].t18313.torrent 
Торрент: Зарегистрирован [ 2016-03-17 00:39 ] · C62BC2606910AD6AA49F33DDF8D4054CAB67AFCF

Скачать .torrent

Скачать

12 KB

Статус: проверено
Скачан: 0 раз
Размер: 281 MB
terms.php



Быстрый ответ

Имя:

      
Для отправки сообщений необходимо включить JavaScript
Показать сообщения:    

Текущее время: 21-Янв 11:37

Часовой пояс: UTC + 3


Вы можете начинать темы
Вы можете отвечать на сообщения
Вы не можете редактировать свои сообщения
Вы не можете удалять свои сообщения
Вы не можете голосовать в опросах
Вы не можете прикреплять файлы к сообщениям
Вы можете скачивать файлы