Вячеслав Тихонов. Мгновения длиною в жизнь (Елена Егорычева) [2008, документальный, познавательный, искусство, кинематограф, SATRip]


Статистика раздачи [Обновить пиров]
Размер:  638 MB   |    Зарегистрирован:  8 месяцев 25 дней   |    Скачан:  0 раз

Полного источника не было: Никогда

 
   
 
 
 

[Цитировать]

Вячеслав Тихонов. Мгновения длиною в жизнь
Дата/Год выпуска: 2008
Страна: Россия
Жанр: документальный, познавательный, искусство, кинематограф
Продолжительность: 00:51:23
Перевод: Не требуется
Доп. инфо о переводе: ООО "Телепутешествия"
В ролях: Михаил Ножкин, Лев Дуров, Ольга Сошникова, Элеонора Шашкова, Александр Михайлов, Даниил Страхов
Русские субтитры: нет
Режиссер: Елена Егорычева
Телеканал: ТВЦ
Описание: Есть старые фильмы, которые и сегодня смотришь с удовольствием. "Семнадцать мгновений весны" – один из них. Об этом фильме до сих пор слагают легенды, а Штирлиц по-прежнему остается примером для актеров, играющих роли разведчиков. Хотя сам Тихонов старался избегать разговоров о своем герое. Не потому что не любил эту роль, а потому что она обрекла его на пожизненное звание штандартенфюрера, заслонив все прочие... А ведь их было немало! Диапазон актера поражает своей широтой – он мог играть все, от трагедии до водевиля, от роли деревенского парня Матвея Морозова в "Дело было в Пенькове" до потомственного аристократа Андрея Болконского в фильме "Война и мир"! Этот документальный фильм, приуроченный к 85-летию Вячеслава Тихонова, повествует о малоизвестных страницах биографии известного актера. В частности, о его театральных работах. На сцене Тихонов играл то, чего ему так не хватало в кино – смешные, серьезные, острохарактерные, водевильные роли в пьесах Островского, играл Онегина, играл героев сказок – в том числе романтическую роль медведя в пьесе Шварца "Обыкновенное чудо", которую поставил Эраст Гарин – кстати, именно тот первым предсказал Тихонову головокружительную карьеру в кино.
качество: SATRip
формат: AVI
Видео: 704x400 (1.76:1), 25 fps, XviD MPEG-4 ~1597 kbps avg, 0.24 bit/pixel
Аудио: 48 kHz, MPEG Layer 3, 1 ch, ~128.00 kbps avg

MediaInfo

Общее
Полное имя : В.Тихонов. Мгновения дл. в жизнь.2008.XviD.SATRip_shibay9.avi
Формат : AVI
Формат/Информация : Audio Video Interleave
Размер файла : 638 Мбайт
Продолжительность : 51 м.
Общий поток : 1736 Кбит/сек
Программа кодирования : VirtualDubMod 1.5.10.3 | www.virtualdub-fr.org || (build 2550/release)
Библиотека кодирования : VirtualDubMod build 2550/release
Видео
Идентификатор : 0
Формат : MPEG-4 Visual
Профиль формата : Advanced Simple@L5
Параметр BVOP формата : 2
Параметр QPel формата : Нет
Параметр GMC формата : Без точки перехода
Параметр матрицы формата : Default (H.263)
Режим смешивания : Сжатый битовый поток
Идентификатор кодека : XVID
Идентификатор кодека/Подсказка : XviD
Продолжительность : 51 м.
Битрейт : 1598 Кбит/сек
Ширина : 704 пикселя
Высота : 400 пикселей
Соотношение сторон : 16:9
Частота кадров : 25,000 кадров/сек
Цветовое пространство : YUV
Субдискретизация насыщенности : 4:2:0
Битовая глубина : 8 бит
Тип развёртки : Прогрессивная
Метод сжатия : С потерями
Бит/(Пиксели*Кадры) : 0.227
Размер потока : 587 Мбайт (92%)
Библиотека кодирования : XviD 64
Аудио
Идентификатор : 1
Формат : MPEG Audio
Версия формата : Version 1
Профиль формата : Layer 3
Идентификатор кодека : 55
Идентификатор кодека/Подсказка : MP3
Продолжительность : 51 м.
Вид битрейта : Постоянный
Битрейт : 128 Кбит/сек
Каналы : 1 канал
Частота : 48,0 КГц
Метод сжатия : С потерями
Размер потока : 47,1 Мбайт (7%)
Выравнивание : Соединение по промежуткам
Продолжительность промежутка : 40 мс. (1,00 видеокадр)
Время предзагрузки промежутка : 504 мс.
Библиотека кодирования : LAME3.99r
Настройки программы : -m m -V 4 -q 0 -lowpass 20.5 -b 128

Скриншоты

[teatrix.ru].t18315.torrent 
Торрент: Зарегистрирован [ 2016-03-17 00:39 ] · 51DF22CC77D3B044B2AAEF01C59529C699A6F81F

Скачать .torrent

Скачать

13 KB

Статус: проверено
Скачан: 0 раз
Размер: 638 MB
terms.php



Показать сообщения:    

Текущее время: 11-Дек 12:59

Часовой пояс: UTC + 3


Вы не можете начинать темы
Вы не можете отвечать на сообщения
Вы не можете редактировать свои сообщения
Вы не можете удалять свои сообщения
Вы не можете голосовать в опросах
Вы не можете прикреплять файлы к сообщениям
Вы можете скачивать файлы