(Classical) Anu Komsi - Coloratura: Глиэр, Thomas, Delibes, Алябьев, Mozart, Zorn, Sibelius - Lahti Symphony Orchestra, Sakari Oramo - 2012, FLAC (image+.cue) lossless


 

[Цитировать]

Anu Komsi - Coloratura: Глиэр, Thomas, Delibes, Алябьев, Mozart, Zorn, Sibelius - Lahti Symphony Orchestra, Sakari Oramo
Жанр: Classical
Страна-производитель диска: Sweden
Год издания диска: 2012
Издатель (лейбл): BIS
Номер по каталогу: BIS-SACD-1962
Дата записи: 2011
Аудиокодек: FLAC
Тип рипа: image+.cue
Битрейт аудио: lossless
Продолжительность: 66:27
Источник: собственный рип
Наличие сканов в содержимом раздачи: да
Треклист:
Рейнгольд Морицевич Глиэр (1875–1956)
[1]-[2] Концерт для колоратурного сопрано с оркестром, Op. 82 (1943)
Ambroise Thomas (1811–96)
[3] Scène et air d’Ophélie
Ophelia’s Mad Scene, from Hamlet, Act V
Léo Delibes (1836–91)
[4] Air des clochettes
The Bell Song, from Lakmé, Act II
Александр Алябьев (1787–1851)
[5] Соловей
Wolfgang Amadeus Mozart (1756–91)
[6] Der Hölle Rache
Aria of the Queen of the Night from Die Zauberflöte, Act II
John Zorn (b. 1953)
[7]-[9] La Machine de l’être – a monodrama
Jean Sibelius (1865–1957)
[10] Luonnotar, Op. 70 (1913)
Исполнители:
Anu Komsi soprano
Lahti Symphony Orchestra (Sinfonia Lahti)
Sakari Oramo conductor

Лог создания рипа

Exact Audio Copy V1.0 beta 3 from 29. August 2011
EAC extraction logfile from 17. February 2014, 13:46
Anu Komsi, Lahti Symphony Orchestra, Sakari Oramo / Coloratura - Anu Komsi
Used drive : HL-DT-STDVDRRW GWA-4164B Adapter: 5 ID: 0
Read mode : Secure
Utilize accurate stream : Yes
Defeat audio cache : Yes
Make use of C2 pointers : No
Read offset correction : 102
Overread into Lead-In and Lead-Out : No
Fill up missing offset samples with silence : Yes
Delete leading and trailing silent blocks : No
Null samples used in CRC calculations : Yes
Used interface : Native Win32 interface for Win NT & 2000
Used output format : User Defined Encoder
Selected bitrate : 896 kBit/s
Quality : High
Add ID3 tag : No
Command line compressor : C:\Program Files\Exact Audio Copy\FLAC\FLAC.EXE
Additional command line options : -V -8 %source%
TOC of the extracted CD
Track | Start | Length | Start sector | End sector
---------------------------------------------------------
1 | 0:00.00 | 9:19.48 | 0 | 41972
2 | 9:19.48 | 5:04.12 | 41973 | 64784
3 | 14:23.60 | 12:33.47 | 64785 | 121306
4 | 26:57.32 | 9:00.22 | 121307 | 161828
5 | 35:57.54 | 5:31.71 | 161829 | 186724
6 | 41:29.50 | 3:23.70 | 186725 | 202019
7 | 44:53.45 | 4:11.51 | 202020 | 220895
8 | 49:05.21 | 3:26.32 | 220896 | 236377
9 | 52:31.53 | 4:14.55 | 236378 | 255482
10 | 56:46.33 | 9:41.28 | 255483 | 299085
Range status and errors
Selected range
Filename D:\temp\Music\BIS-SACD-1962 - Coloratura - Anu Komsi\Coloratura - Anu Komsi.wav
Peak level 97.8 %
Extraction speed 3.5 X
Range quality 100.0 %
Test CRC 9580ED93
Copy CRC 9580ED93
Copy OK
No errors occurred
AccurateRip summary
Track 1 not present in database
Track 2 not present in database
Track 3 not present in database
Track 4 not present in database
Track 5 not present in database
Track 6 not present in database
Track 7 not present in database
Track 8 not present in database
Track 9 not present in database
Track 10 not present in database
None of the tracks are present in the AccurateRip database
End of status report
==== Log checksum 7FF63EF22677C1C818E75BD039AC6F1ADF1AC7194CA0AB6A46424C2DADEDA127 ====



Показать сообщения:    

Текущее время: 11-Дек 01:23

Часовой пояс: UTC + 3


Вы не можете начинать темы
Вы не можете отвечать на сообщения
Вы не можете редактировать свои сообщения
Вы не можете удалять свои сообщения
Вы не можете голосовать в опросах
Вы не можете прикреплять файлы к сообщениям
Вы не можете скачивать файлы