(piano) Edwin Fischer - Live Recordings 1946-54 (Mozart, Beethoven, Schumann, Brahms) - 2004, FLAC (image+.cue) lossless


Статистика раздачи [Обновить пиров]
Размер:  672 MB   |    Зарегистрирован:  8 месяцев 24 дня   |    Скачан:  0 раз

Полного источника не было: Никогда

 
   
 
 
 

[Цитировать]

Edwin Fischer - Live Recordings 1946-54
Жанр: piano
Страна-производитель диска: Germany
Год издания диска: 2004
Издатель (лейбл): Orfeo
Дата записи: 1946-1954
Аудиокодек: FLAC
Тип рипа: image+.cue
Битрейт аудио: lossless
Продолжительность: 67.09 + 63.30 + 64.34 + 71.41
Источник: скачано с
Треклист:
CD1
1-3 Mozart - Klavierkonzert No.25 C-dur KV503
4-6 Mozart - Klavierkonzert No.22 C-dur KV482
Edwin Fischer (piano)
Wiener Philarmoniker, dir. Edwin Fischer
7. August 1946, Zalzburger festspiele, Mozarteum
CD2
1-3 Mozart - Klaviertrio No.6 C-dur KV548
4-6 Beetnoven - Klaviertrio No.7 B-dur op.97
Edwin Fischer (piano)
Wolfgang Schneiderhan (violine)
Enrico Mainardi (violoncello)
9. August 1952, Kammerkonzert, Mozarteum
CD3
1-4 Schumann - Klaviertrio No.1 d-moll op.63
5-8 Brahms - Klaviertrio No.1 H-dur op.8
Edwin Fischer (piano)
Wolfgang Schneiderhan (violine)
Enrico Mainardi (violoncello)
8. August 1953, Kammerkonzert, Mozarteum
CD4
1-2 Beetnoven - Sonate No.32 c-moll op.111
3-6 Beetnoven - Sonate No.15 D-dur op.28
7-9 Beetnoven - Sonate No.21 C-dur op.53
Edwin Fischer (piano)
28. Juli 1954, Solistenkonzert, Mozarteum
Исполнители:
Edwin Fischer (piano)
Wolfgang Schneiderhan (violine)
Enrico Mainardi (violoncello)
Wiener Philarmoniker, dir. Edwin Fischer

Лог создания рипа

CD1
Exact Audio Copy V1.0 beta 2 from 29. April 2011
EAC extraction logfile from 17. August 2013, 18:15
Edwin Fischer / Piano Concertos No. 22 & 25
Used drive : HL-DT-STDVDRAM GE24LU20 Adapter: 2 ID: 0
Read mode : Secure
Utilize accurate stream : Yes
Defeat audio cache : No
Make use of C2 pointers : Yes
Read offset correction : 667
Overread into Lead-In and Lead-Out : No
Fill up missing offset samples with silence : Yes
Delete leading and trailing silent blocks : No
Null samples used in CRC calculations : No
Used interface : Native Win32 interface for Win NT & 2000
Used output format : User Defined Encoder
Selected bitrate : 768 kBit/s
Quality : High
Add ID3 tag : No
Command line compressor : C:\Program Files (x86)\Exact Audio Copy\FLAC\FLAC.EXE
Additional command line options : -6 -V -T "ARTIST=%artist%" -T "TITLE=%title%" -T "ALBUM=%albumtitle%" -T "DATE=%year%" -T "TRACKNUMBER=%tracknr%" -T "GENRE=%genre%" -T "COMMENT=%comment%" -T "BAND=%albuminterpret%" -T "COMPOSER=%composer%" %haslyrics%--ta
TOC of the extracted CD
Track | Start | Length | Start sector | End sector
---------------------------------------------------------
1 | 0:00.00 | 14:57.39 | 0 | 67313
2 | 14:57.39 | 7:35.72 | 67314 | 101510
3 | 22:33.36 | 8:54.24 | 101511 | 141584
4 | 31:27.60 | 13:09.66 | 141585 | 200825
5 | 44:37.51 | 10:56.32 | 200826 | 250057
6 | 55:34.08 | 11:33.23 | 250058 | 302055
Range status and errors
Selected range
Filename C:\EAC rips\Edwin Fischer - Live Recordings 1946-54\CD1.wav
Peak level 93.2 %
Extraction speed 27.8 X
Range quality 100.0 %
Copy CRC DB755906
Copy OK
No errors occurred
AccurateRip summary
Track 1 accurately ripped (confidence 1) [EE9F37ED] (AR v1)
Track 2 accurately ripped (confidence 1) [D567C172] (AR v1)
Track 3 accurately ripped (confidence 1) [8146BB5D] (AR v1)
Track 4 accurately ripped (confidence 1) [886A0521] (AR v1)
Track 5 accurately ripped (confidence 1) [54DA8B96] (AR v1)
Track 6 accurately ripped (confidence 1) [42172A66] (AR v1)
All tracks accurately ripped
End of status report
CD2
Exact Audio Copy V1.0 beta 2 from 29. April 2011
EAC extraction logfile from 17. August 2013, 18:20
Unknown Artist / Unknown Title
Used drive : HL-DT-STDVDRAM GE24LU20 Adapter: 2 ID: 0
Read mode : Secure
Utilize accurate stream : Yes
Defeat audio cache : No
Make use of C2 pointers : Yes
Read offset correction : 667
Overread into Lead-In and Lead-Out : No
Fill up missing offset samples with silence : Yes
Delete leading and trailing silent blocks : No
Null samples used in CRC calculations : No
Used interface : Native Win32 interface for Win NT & 2000
Used output format : User Defined Encoder
Selected bitrate : 768 kBit/s
Quality : High
Add ID3 tag : No
Command line compressor : C:\Program Files (x86)\Exact Audio Copy\FLAC\FLAC.EXE
Additional command line options : -6 -V -T "ARTIST=%artist%" -T "TITLE=%title%" -T "ALBUM=%albumtitle%" -T "DATE=%year%" -T "TRACKNUMBER=%tracknr%" -T "GENRE=%genre%" -T "COMMENT=%comment%" -T "BAND=%albuminterpret%" -T "COMPOSER=%composer%" %haslyrics%--ta
TOC of the extracted CD
Track | Start | Length | Start sector | End sector
---------------------------------------------------------
1 | 0:00.00 | 7:50.12 | 0 | 35261
2 | 7:50.12 | 6:10.73 | 35262 | 63084
3 | 14:01.10 | 5:33.10 | 63085 | 88069
4 | 19:34.20 | 13:51.40 | 88070 | 150434
5 | 33:25.60 | 7:47.18 | 150435 | 185477
6 | 41:13.03 | 14:04.45 | 185478 | 248822
7 | 55:17.48 | 8:11.12 | 248823 | 285659
Range status and errors
Selected range
Filename C:\EAC rips\Edwin Fischer - Live Recordings 1946-54\CD2.wav
Peak level 34.6 %
Extraction speed 27.4 X
Range quality 100.0 %
Copy CRC 6BA12634
Copy OK
No errors occurred
AccurateRip summary
Track 1 accurately ripped (confidence 1) [C5CA8E5C] (AR v1)
Track 2 accurately ripped (confidence 1) [85017DE3] (AR v1)
Track 3 accurately ripped (confidence 1) [EAE72067] (AR v1)
Track 4 accurately ripped (confidence 1) [74CA4A32] (AR v1)
Track 5 accurately ripped (confidence 1) [27EC2BA6] (AR v1)
Track 6 accurately ripped (confidence 1) [DA50AF1F] (AR v1)
Track 7 accurately ripped (confidence 1) [7BD9FC2A] (AR v1)
All tracks accurately ripped
End of status report
CD3
Exact Audio Copy V1.0 beta 2 from 29. April 2011
EAC extraction logfile from 17. August 2013, 18:25
Unknown Artist / Unknown Title
Used drive : HL-DT-STDVDRAM GE24LU20 Adapter: 2 ID: 0
Read mode : Secure
Utilize accurate stream : Yes
Defeat audio cache : No
Make use of C2 pointers : Yes
Read offset correction : 667
Overread into Lead-In and Lead-Out : No
Fill up missing offset samples with silence : Yes
Delete leading and trailing silent blocks : No
Null samples used in CRC calculations : No
Used interface : Native Win32 interface for Win NT & 2000
Used output format : User Defined Encoder
Selected bitrate : 768 kBit/s
Quality : High
Add ID3 tag : No
Command line compressor : C:\Program Files (x86)\Exact Audio Copy\FLAC\FLAC.EXE
Additional command line options : -6 -V -T "ARTIST=%artist%" -T "TITLE=%title%" -T "ALBUM=%albumtitle%" -T "DATE=%year%" -T "TRACKNUMBER=%tracknr%" -T "GENRE=%genre%" -T "COMMENT=%comment%" -T "BAND=%albuminterpret%" -T "COMPOSER=%composer%" %haslyrics%--ta
TOC of the extracted CD
Track | Start | Length | Start sector | End sector
---------------------------------------------------------
1 | 0:00.00 | 11:05.02 | 0 | 49876
2 | 11:05.02 | 4:46.11 | 49877 | 71337
3 | 15:51.13 | 6:44.70 | 71338 | 101707
4 | 22:36.08 | 8:31.18 | 101708 | 140050
5 | 31:07.26 | 10:42.37 | 140051 | 188237
6 | 41:49.63 | 6:00.58 | 188238 | 215295
7 | 47:50.46 | 9:01.43 | 215296 | 255913
8 | 56:52.14 | 7:40.23 | 255914 | 290436
Range status and errors
Selected range
Filename C:\EAC rips\Edwin Fischer - Live Recordings 1946-54\CD3.wav
Peak level 37.9 %
Extraction speed 27.6 X
Range quality 100.0 %
Copy CRC C4EBD455
Copy OK
No errors occurred
AccurateRip summary
Track 1 accurately ripped (confidence 1) [8B091055] (AR v1)
Track 2 accurately ripped (confidence 1) [6F713243] (AR v1)
Track 3 accurately ripped (confidence 1) [D9224A1D] (AR v1)
Track 4 accurately ripped (confidence 1) [5EDC849E] (AR v1)
Track 5 accurately ripped (confidence 1) [C8DA9C2A] (AR v1)
Track 6 accurately ripped (confidence 1) [4E333DE7] (AR v1)
Track 7 accurately ripped (confidence 1) [8E95A1F6] (AR v1)
Track 8 accurately ripped (confidence 1) [FDD2458E] (AR v1)
All tracks accurately ripped
End of status report
CD4
Exact Audio Copy V1.0 beta 2 from 29. April 2011
EAC extraction logfile from 17. August 2013, 18:37
Unknown Artist / Unknown Title
Used drive : HL-DT-STDVDRAM GE24LU20 Adapter: 2 ID: 0
Read mode : Secure
Utilize accurate stream : Yes
Defeat audio cache : No
Make use of C2 pointers : Yes
Read offset correction : 667
Overread into Lead-In and Lead-Out : No
Fill up missing offset samples with silence : Yes
Delete leading and trailing silent blocks : No
Null samples used in CRC calculations : No
Used interface : Native Win32 interface for Win NT & 2000
Used output format : User Defined Encoder
Selected bitrate : 768 kBit/s
Quality : High
Add ID3 tag : No
Command line compressor : C:\Program Files (x86)\Exact Audio Copy\FLAC\FLAC.EXE
Additional command line options : -6 -V -T "ARTIST=%artist%" -T "TITLE=%title%" -T "ALBUM=%albumtitle%" -T "DATE=%year%" -T "TRACKNUMBER=%tracknr%" -T "GENRE=%genre%" -T "COMMENT=%comment%" -T "BAND=%albuminterpret%" -T "COMPOSER=%composer%" %haslyrics%--ta
TOC of the extracted CD
Track | Start | Length | Start sector | End sector
---------------------------------------------------------
1 | 0:00.00 | 8:42.61 | 0 | 39210
2 | 8:42.61 | 15:56.62 | 39211 | 110972
3 | 24:39.48 | 10:10.09 | 110973 | 156731
4 | 34:49.57 | 6:17.31 | 156732 | 185037
5 | 41:07.13 | 2:31.12 | 185038 | 196374
6 | 43:38.25 | 4:53.69 | 196375 | 218418
7 | 48:32.19 | 10:46.63 | 218419 | 266931
8 | 59:19.07 | 3:39.72 | 266932 | 283428
9 | 62:59.04 | 9:40.29 | 283429 | 326957
Range status and errors
Selected range
Filename C:\EAC rips\Edwin Fischer - Live Recordings 1946-54\CD4.wav
Peak level 33.3 %
Extraction speed 28.3 X
Range quality 100.0 %
Copy CRC 7DA2A9D7
Copy OK
No errors occurred
AccurateRip summary
Track 1 accurately ripped (confidence 1) [35831034] (AR v1)
Track 2 accurately ripped (confidence 1) [B593ABC1] (AR v1)
Track 3 accurately ripped (confidence 1) [C244DF4F] (AR v1)
Track 4 accurately ripped (confidence 1) [9F383FE2] (AR v1)
Track 5 accurately ripped (confidence 1) [10DE64F7] (AR v1)
Track 6 accurately ripped (confidence 1) [889C3185] (AR v1)
Track 7 accurately ripped (confidence 1) [3D265509] (AR v1)
Track 8 accurately ripped (confidence 1) [BFFCD658] (AR v1)
Track 9 accurately ripped (confidence 1) [E62E348A] (AR v1)
All tracks accurately ripped
End of status report
[teatrix.ru].t18387.torrent 
Торрент: Зарегистрирован [ 2016-03-17 00:37 ] · 21AC60076F7F4FA1C74CF27121A61060811BAE0B

Скачать .torrent

Скачать

14 KB

Статус: проверено
Скачан: 0 раз
Размер: 672 MB
terms.php



Быстрый ответ

Имя:

      
Для отправки сообщений необходимо включить JavaScript
Показать сообщения:    

Текущее время: 10-Дек 09:54

Часовой пояс: UTC + 3


Вы можете начинать темы
Вы можете отвечать на сообщения
Вы не можете редактировать свои сообщения
Вы не можете удалять свои сообщения
Вы не можете голосовать в опросах
Вы не можете прикреплять файлы к сообщениям
Вы можете скачивать файлы