Шибенду Лахири - Посвящение в начальную крийю. [2005, Крийя йога, DVDRip, RUS] (Видеоурок)


Статистика раздачи [Обновить пиров]
Размер:  1.46 GB   |    Зарегистрирован:  8 месяцев 23 дня   |    Скачан:  0 раз

Полного источника не было: Никогда

 
   
 
 
 

[Цитировать]

Шибенду Лахири - Посвящение в начальную крийю.
Страна: Россия
Тематика: Крийя йога
Тип раздаваемого материала: Видеоурок
Продолжительность: 01:42:00
Год выпуска: 2005
Язык: Русский
Перевод: Не требуется
Описание: Крийя йога была заново открыта великим индийским йогом Лахири Махасайя. Махаватар Бабаджи, вечный, никогда не стареющий йог, привел Лахари Махасайя на гору Дунагири а Гималайях и заново открыл ему истинную Крийя йогу. Шибенду Лахири передает это учение в первозданной чистоте, без искажений, со всеми нюансами, которые нельзя почерпнуть из книг. Они видны только в живом общении с Гуру.
- Преданность.Окончательное уничтожение разделенности ума.
- Концепции и прямое видение Реальности.
- Контроль дыхания, контроль ума.
- Лайя йога.
- Религия неума в трех измерениях.
Качество: DVDRip
Формат: AVI
Видео кодек: XviD
Аудио кодек: MP2
Видео: XviD, 688x512, (4:3), 1778 kbps, 25 fps
Аудио: MPEG-1 Audio Layer 2, 256 kbps, 48.0 kHz, 2 ch

Скриншоты

MediaInfo

Общее
Полное имя : Q:\Видео\Видеоуроки\Шибенду Лахири\Посвящение в начальную крийю.avi
Формат : AVI
Формат/Информация : Audio Video Interleave
Размер файла : 1,46 Гбайт
Продолжительность : 1 ч. 42 м.
Общий поток : 2043 Кбит/сек
Программа кодирования : VirtualDubMod 1.5.10.3 | www.virtualdub-fr.org || (build 2550/release)
Библиотека кодирования : VirtualDubMod build 2550/release
Видео
Идентификатор : 0
Формат : MPEG-4 Visual
Профиль формата : Advanced Simple@L5
Параметр BVOP формата : 1
Параметр QPel формата : Нет
Параметр GMC формата : Без точки перехода
Параметр матрицы формата : Выборочная
Идентификатор кодека : XVID
Идентификатор кодека/Подсказка : XviD
Продолжительность : 1 ч. 42 м.
Битрейт : 1778 Кбит/сек
Ширина : 688 пикселей
Высота : 512 пикселей
Соотношение сторон : 4:3
Частота кадров : 25,000 кадров/сек
Цветовое пространство : YUV
Субдискретизация насыщенности : 4:2:0
Битовая глубина : 8 бит
Тип развёртки : Прогрессивная
Метод сжатия : С потерями
Бит/(Пиксели*Кадры) : 0.202
Размер потока : 1,27 Гбайт (87%)
Библиотека кодирования : XviD 73
Аудио
Идентификатор : 1
Формат : MPEG Audio
Версия формата : Version 1
Профиль формата : Layer 2
Идентификатор кодека : 50
Продолжительность : 1 ч. 42 м.
Вид битрейта : Постоянный
Битрейт : 256 Кбит/сек
Каналы : 2 канала
Частота : 48,0 КГц
Метод сжатия : С потерями
Размер потока : 187 Мбайт (13%)
Выравнивание : Соединение по промежуткам
Продолжительность промежутка : 40 мс. (1,00 видеокадр)
Время предзагрузки промежутка : 504 мс.
[teatrix.ru].t18391.torrent 
Торрент: Зарегистрирован [ 2016-03-17 00:39 ] · 2D9CBD3B42A12368AF2D8251B1AC6D52B5785599

Скачать .torrent

Скачать

15 KB

Статус: проверено
Скачан: 0 раз
Размер: 1.46 GB
terms.php



Быстрый ответ

Имя:

      
Для отправки сообщений необходимо включить JavaScript
Показать сообщения:    

Текущее время: 09-Дек 06:54

Часовой пояс: UTC + 3


Вы можете начинать темы
Вы можете отвечать на сообщения
Вы не можете редактировать свои сообщения
Вы не можете удалять свои сообщения
Вы не можете голосовать в опросах
Вы не можете прикреплять файлы к сообщениям
Вы можете скачивать файлы