(Classical) Monteverdi - Vespro Della Beata Vergine (Rinaldo Alessandrini, Concerto Italiano; Invernizzi, Piccini, Simboli, Ghelardini, Di Donato, Dordolo, Ferrarini, Spagnoli, Zanasi, Abete, Carnovich) - 2004, FLAC (image+.cue) lossless


Статистика раздачи [Обновить пиров]
Размер:  503 MB   |    Зарегистрирован:  8 месяцев 18 дней   |    Скачан:  0 раз

Полного источника не было: Никогда

 
   
 
 
 

[Цитировать]

Monteverdi - Vespro Della Beata Vergine (Rinaldo Alessandrini)
Жанр: Classical
Год издания диска: 2004
Издатель (лейбл): Naïve
Номер по каталогу: OP 30403
Аудиокодек: FLAC
Тип рипа: image+.cue
Битрейт аудио: lossless
Продолжительность: CD1:50’11, CD2:55'16
Источник: собственный рип
Наличие сканов в содержимом раздачи: да
Исполнители:
Roberta Invernizzi, Monica Piccini, Anna Simboli - sopranos
Sara Mingardo - contralto
Francesco Ghelardini - countenor
Vincenzo Di Donato, Luca Dordolo, Gianluca Ferrarini - tenors
Pietro Spagnoli, Furio Zanasi - baritones
Antonio Abete, Daniele Carnovich - basses
Concerto Italiano
Rinaldo Alessandrini

Треклист:

CD1
01. Responsorium domine ad adiuvandum me festina
02. Psalmus 109. Dixit dominus
03. Concerto nigra sum
04. Psalmus 112. Laudate pueri
05. Concerto pulchra es
06. Psalmus 121. Laetus sum
07. Concerto duo seraphim
08. Psalmus 126. Nisi dominus
09. Concerto audi coelum
CD2
01. Psalmus 147. Lauda jerusalem
02. Sonata sopra sancta maria
03. Ave maris stella
04. Magnificat [I] - I. Magnificat
05. Magnificat [I] - II. Et exultavit
06. Magnificat [I] - III. Quia respexit
07. Magnificat [I] - IV. Quia fecit
08. Magnificat [I] - V. Et misericordia
09. Magnificat [I] - VI. Fecit potentiam
10. Magnificat [I] - VII. Deposuit potentes
11. Magnificat [I] - VIII. Esurientes
12. Magnificat [I] - IX. Suscepit israel
13. Magnificat [I] - X. Sicut locutus est
14. Magnificat [I] - XI. Gloria patri
15. Magnificat [I] - XII. Sicut erat
16. Magnificat [II] - I. Magnificat
17. Magnificat [II] - II. Et exultavit
18. Magnificat [II] - III. Quia respexit
19. Magnificat [II] - IV. Quia fecit
20. Magnificat [II] - V. Et misericordia
21. Magnificat [II] - VI. Fecit potentiam
22. Magnificat [II] - VII. Deposuit potentes
23. Magnificat [II] - VIII. Esurientes
24. Magnificat [II] - IX. Suscepit
25. Magnificat [II] - X. Sicut locutus
26. Magnificat [II] - XI. Gloria patri
27. Magnificat [II] - XII. Sicut erat

LOG EAC CD1:

Exact Audio Copy V1.0 beta 3 from 29. August 2011
EAC extraction logfile from 25. April 2014, 14:35
Concerto Italiano, Rinaldo Alessandrini / Monteverdi - Vespro della beata vergine (1610) CD01
Used drive : PIONEER DVD-RW DVR-218L Adapter: 0 ID: 1
Read mode : Secure
Utilize accurate stream : Yes
Defeat audio cache : Yes
Make use of C2 pointers : No
Read offset correction : 6
Overread into Lead-In and Lead-Out : No
Fill up missing offset samples with silence : Yes
Delete leading and trailing silent blocks : No
Null samples used in CRC calculations : Yes
Used interface : Native Win32 interface for Win NT & 2000
Used output format : User Defined Encoder
Selected bitrate : 128 kBit/s
Quality : High
Add ID3 tag : No
Command line compressor : C:\Program Files\Exact Audio Copy\Flac\flac.exe
Additional command line options : -V -8 -T "Date=%year%" -T "Genre=%genre%" %source%
TOC of the extracted CD
Track | Start | Length | Start sector | End sector
---------------------------------------------------------
1 | 0:00.00 | 2:14.63 | 0 | 10112
2 | 2:14.63 | 7:17.12 | 10113 | 42899
3 | 9:32.00 | 3:20.70 | 42900 | 57969
4 | 12:52.70 | 6:49.27 | 57970 | 88671
5 | 19:42.22 | 4:27.73 | 88672 | 108769
6 | 24:10.20 | 7:24.24 | 108770 | 142093
7 | 31:34.44 | 5:30.65 | 142094 | 166908
8 | 37:05.34 | 4:42.14 | 166909 | 188072
9 | 41:47.48 | 8:24.21 | 188073 | 225893
Range status and errors
Selected range
Filename C:\Program Files\Exact Audio Copy\Flac\Monteverdi - Vespro della beata vergine (1610) CD01.wav
Peak level 95.4 %
Extraction speed 1.7 X
Range quality 99.9 %
Test CRC 2A26ADF8
Copy CRC 2A26ADF8
Copy OK
No errors occurred
End of status report
==== Log checksum C4BCE130DC118C11EE14EC346BBD2E56C61FF0399C698D1DAD603B0FAA257DA2 ====

LOG EAC CD2:

Exact Audio Copy V1.0 beta 3 from 29. August 2011
EAC extraction logfile from 25. April 2014, 16:29
Concerto Italiano, Rinaldo Alessandrini / Monteverdi - Vespro della beata vergine (1610) CD02
Used drive : PIONEER DVD-RW DVR-218L Adapter: 0 ID: 1
Read mode : Secure
Utilize accurate stream : Yes
Defeat audio cache : Yes
Make use of C2 pointers : No
Read offset correction : 6
Overread into Lead-In and Lead-Out : No
Fill up missing offset samples with silence : Yes
Delete leading and trailing silent blocks : No
Null samples used in CRC calculations : Yes
Used interface : Native Win32 interface for Win NT & 2000
Used output format : User Defined Encoder
Selected bitrate : 128 kBit/s
Quality : High
Add ID3 tag : No
Command line compressor : C:\Program Files\Exact Audio Copy\Flac\flac.exe
Additional command line options : -V -8 -T "Date=%year%" -T "Genre=%genre%" %source%
TOC of the extracted CD
Track | Start | Length | Start sector | End sector
---------------------------------------------------------
1 | 0:00.00 | 4:29.70 | 0 | 20244
2 | 4:29.70 | 5:42.65 | 20245 | 45959
3 | 10:12.60 | 7:27.03 | 45960 | 79487
4 | 17:39.63 | 1:02.09 | 79488 | 84146
5 | 18:41.72 | 1:18.33 | 84147 | 90029
6 | 20:00.30 | 2:01.36 | 90030 | 99140
7 | 22:01.66 | 1:14.23 | 99141 | 104713
8 | 23:16.14 | 2:16.28 | 104714 | 114941
9 | 25:32.42 | 0:53.52 | 114942 | 118968
10 | 26:26.19 | 2:15.34 | 118969 | 129127
11 | 28:41.53 | 1:17.66 | 129128 | 134968
12 | 29:59.44 | 1:22.44 | 134969 | 141162
13 | 31:22.13 | 0:52.64 | 141163 | 145126
14 | 32:15.02 | 2:08.73 | 145127 | 154799
15 | 34:24.00 | 2:09.10 | 154800 | 164484
16 | 36:33.10 | 1:31.62 | 164485 | 171371
17 | 38:04.72 | 1:19.37 | 171372 | 177333
18 | 39:24.34 | 1:15.55 | 177334 | 183013
19 | 40:40.14 | 2:13.72 | 183014 | 193060
20 | 42:54.11 | 1:27.22 | 193061 | 199607
21 | 44:21.33 | 0:49.46 | 199608 | 203328
22 | 45:11.04 | 1:52.72 | 203329 | 211800
23 | 47:04.01 | 0:58.42 | 211801 | 216192
24 | 48:02.43 | 2:19.12 | 216193 | 226629
25 | 50:21.55 | 1:05.59 | 226630 | 231563
26 | 51:27.39 | 2:21.43 | 231564 | 242181
27 | 53:49.07 | 1:27.16 | 242182 | 248722
Range status and errors
Selected range
Filename C:\Program Files\Exact Audio Copy\Flac\Monteverdi - Vespro della beata vergine (1610) CD02.wav
Peak level 96.1 %
Extraction speed 1.8 X
Range quality 100.0 %
Test CRC E5F2BAB9
Copy CRC E5F2BAB9
Copy OK
No errors occurred
End of status report
==== Log checksum 12E337E9301AB4E4DCBA1238AA0B894E5F8EFF439CD2C98796EB3C19C9E0F13B ====
mp3
[teatrix.ru].t18405.torrent 
Торрент: Зарегистрирован [ 2016-03-17 00:37 ] · C690A033D92D0939EBD2B6B4512C79F3B656C637

Скачать .torrent

Скачать

21 KB

Статус: проверено
Скачан: 0 раз
Размер: 503 MB
terms.php



Быстрый ответ

Имя:

      
Для отправки сообщений необходимо включить JavaScript
Показать сообщения:    

Текущее время: 04-Дек 11:15

Часовой пояс: UTC + 3


Вы можете начинать темы
Вы можете отвечать на сообщения
Вы не можете редактировать свои сообщения
Вы не можете удалять свои сообщения
Вы не можете голосовать в опросах
Вы не можете прикреплять файлы к сообщениям
Вы можете скачивать файлы