Шибенду Лахири. Встреча с Бабаджи [2005, Крийя йога, DVDRip, RUS] (Видеоурок)


Статистика раздачи [Обновить пиров]
Размер:  2.89 GB   |    Зарегистрирован:  8 месяцев 24 дня   |    Скачан:  0 раз

Полного источника не было: Никогда

 
   
 
 
 

[Цитировать]

Шибенду Лахири. Встреча с Бабаджи
Страна: Россия
Тематика: Крийя йога
Тип раздаваемого материала: Видеоурок
Продолжительность: 03:24:00
Год выпуска: 2005
Язык: Русский
Перевод: Не требуется
Описание: Крийя йога была заново открыта великим индийским йогом Лахири Махасайя. Махаватар Бабаджи, вечный, никогда не стареющий йог, привел Лахири Махасайя на гору Дунагири в Гималаях и заново открыл ему истинную Крийя йогу. Шибенду Лахири передает это учение в первозданной чистоте, без искажений, со всеми нюансами, которые нельзя подчерпнуть из книг. Они видны только в живом общении с Гуру.
Содержание:
1. Разделение ума. Иисус и организованная религия
2. Женское начало энергии
3. Кто я
4. Ментальные загрязнения
5. Просветление Будды
6. Гуны. Доверие Существованию и отсутствие страхов
7. Встреча с Бабаджи
Рип с этого DVD
Качество: DVDRip
Формат: AVI
Видео кодек: XviD
Аудио кодек: AC3
Видео: XviD MPEG-4,688x528 (1.30:1), 25 fps, ~1798 kbps avg, 0.20 bit/pixel
Аудио: 48 kHz, AC3 Dolby Digital, 2/0 (L,R) ch, ~224 kbps

Скриншоты

MediaInfo

Общее
Полное имя : F:\Рипы\Шибенду Лахири.2007.DVDRip.avi
Формат : AVI
Формат/Информация : Audio Video Interleave
Профиль формата : OpenDML
Размер файла : 2,89 Гбайт
Продолжительность : 3 ч. 24 м.
Общий поток : 2029 Кбит/сек
Программа кодирования : VirtualDubModRus 1.5.10.2 (build 2542/release)
Библиотека кодирования : VirtualDubMod build 2542/release
Видео
Идентификатор : 0
Формат : MPEG-4 Visual
Профиль формата : Advanced Simple@L5
Параметр BVOP формата : 1
Параметр QPel формата : Нет
Параметр GMC формата : Без точки перехода
Параметр матрицы формата : Выборочная
Идентификатор кодека : XVID
Идентификатор кодека/Подсказка : XviD
Продолжительность : 3 ч. 24 м.
Битрейт : 1794 Кбит/сек
Ширина : 688 пикселей
Высота : 528 пикселей
Соотношение сторон : 4:3
Частота кадров : 25,000 кадров/сек
Цветовое пространство : YUV
Субдискретизация насыщенности : 4:2:0
Битовая глубина : 8 бит
Тип развёртки : Прогрессивная
Метод сжатия : С потерями
Бит/(Пиксели*Кадры) : 0.198
Размер потока : 2,56 Гбайт (88%)
Библиотека кодирования : XviD 73
Аудио
Идентификатор : 1
Формат : AC-3
Формат/Информация : Audio Coding 3
Расширение режима : CM (complete main)
Параметр Endianness формата : Big
Идентификатор кодека : 2000
Продолжительность : 3 ч. 24 м.
Вид битрейта : Постоянный
Битрейт : 224 Кбит/сек
Каналы : 2 канала
Расположение каналов : Front: L R
Частота : 48,0 КГц
Битовая глубина : 16 бит
Метод сжатия : С потерями
Размер потока : 327 Мбайт (11%)
Выравнивание : Разделение по промежуткам
Продолжительность промежутка : 40 мс. (1,00 видеокадр)
Время предзагрузки промежутка : 500 мс.
[teatrix.ru].t18409.torrent 
Торрент: Зарегистрирован [ 2016-03-17 00:39 ] · B9D2D6714D3A270FBB16498C33B7601D9B306DE4

Скачать .torrent

Скачать

15 KB

Статус: проверено
Скачан: 0 раз
Размер: 2.89 GB
terms.php



Быстрый ответ

Имя:

      
Для отправки сообщений необходимо включить JavaScript
Показать сообщения:    

Текущее время: 10-Дек 19:40

Часовой пояс: UTC + 3


Вы можете начинать темы
Вы можете отвечать на сообщения
Вы не можете редактировать свои сообщения
Вы не можете удалять свои сообщения
Вы не можете голосовать в опросах
Вы не можете прикреплять файлы к сообщениям
Вы можете скачивать файлы