(Classical) Isabel Bayrakdarian - Tango Notturno (Serouj Kradjian; Babadjanian/Бабаджанян, Atrache, Monone, Gade, Gardel, Troilo, Rodriguez, Weill, Piazzolla, Borgmann, Aieta) - 2008, FLAC (tracks+.cue) lossless


 

[Цитировать]

Isabel Bayrakdarian - Tango Notturno (Serouj Kradjian)
Жанр: Classical
Год издания диска: 2008
Издатель (лейбл): CBC Records
Номер по каталогу:
Аудиокодек: FLAC
Тип рипа: tracks+.cue
Битрейт аудио: lossless
Продолжительность: 70’05
Источник: скачано из сети
Наличие сканов в содержимом раздачи: да
Треклист:
1. Arno Babadjanian - Tcheknagh Yeraz (Beautiful Dream), song 2:59
2. Farid el Atrache - Ya Zahratan Fee Khayalee (The Flower of My Imagination), song 3:39
3. Unto Mononeт - Satumaa (Fairy Tale Island), song 3:16
4. Jacob Gade - Jalousie, tango for orchestra 4:04
5. Carlos Gardel - Por una cabeza, tango for voice & chamber orchestra 2:49
6. Carlos Gardel - Volver 4:14
7. Carlos Gardel - El día que me quieras (The Day When You Love Me), tango song for voice & orchestra 4:37
8. Aníbal Troilo - Che Bandoneón, tango for bandoneon 4:18
9. Matos Rodriguez - La Cumparsita, for tango orchestra 3:11
10. Kurt Weill - Youkali, tango habañera for voice & piano 6:30
11. Astor Piazzolla - Oblivion, tango 4:14
12. Astor Piazzolla - Invierno porteño, tango (incl. in Cuatro estaciones porteñas [The Four Seasons]) 7:07
13. Hans-Otto Borgmann - Tango Notturno, for orchestra 3:19
14. Astor Piazzolla - Che Tango Che, tango song (with J.C. Carriere and others) 2:42
15. Anselmo Aieta - Corralera, milonga 2:10
16. Astor Piazzolla - Verano porteño, tango (incl. in Cuatro estaciones porteñas [The Four Seasons]) 6:32
17. Astor Piazzolla - Preludio para el año 3001, tango song 4:24
Исполнители:
Isabel Bayrakdarian - Primary Artist, Soprano (Vocal)
Serouj Kradjian - Arranger, Liner Notes, Piano
Fabián Carbone - Arranger, Bandoneon
Shalom Bard - Clarinet
Marie Berard - Violin
Daniel Bolshoy - Guitar
Roman Borys - Cello
Levon Ichkhanian - Oud
Roberto Occhipinti - Bass
Tango Ensemble - Ensemble

LOG EAC:

Exact Audio Copy V0.99 prebeta 5 from 4. May 2009
EAC extraction logfile from 14. November 2009, 15:42
Isabel Bayrakdarian / Tango Notturno
Used drive : LITE-ON DVDRW LH-20A1P Adapter: 0 ID: 0
Read mode : Secure
Utilize accurate stream : Yes
Defeat audio cache : Yes
Make use of C2 pointers : No
Read offset correction : 6
Overread into Lead-In and Lead-Out : No
Fill up missing offset samples with silence : Yes
Delete leading and trailing silent blocks : No
Null samples used in CRC calculations : Yes
Used interface : Native Win32 interface for Win NT & 2000
Gap handling : Appended to previous track
Used output format : User Defined Encoder
Selected bitrate : 768 kBit/s
Quality : High
Add ID3 tag : No
Command line compressor : C:\Program Files\Exact Audio Copy\Flac\flac.exe
Additional command line options : -V -8 -T "artist=%a" -T "title=%t" -T "album=%g" -T "date=%y" -T "tracknumber=%n" -T "genre=%m" %s
TOC of the extracted CD
Track | Start | Length | Start sector | End sector
---------------------------------------------------------
1 | 0:00.00 | 2:59.33 | 0 | 13457
2 | 2:59.33 | 3:39.04 | 13458 | 29886
3 | 6:38.37 | 3:16.60 | 29887 | 44646
4 | 9:55.22 | 4:04.39 | 44647 | 62985
5 | 13:59.61 | 2:49.33 | 62986 | 75693
6 | 16:49.19 | 4:14.55 | 75694 | 94798
7 | 21:03.74 | 4:37.23 | 94799 | 115596
8 | 25:41.22 | 4:18.45 | 115597 | 134991
9 | 29:59.67 | 3:11.69 | 134992 | 149385
10 | 33:11.61 | 6:30.13 | 149386 | 178648
11 | 39:41.74 | 4:14.00 | 178649 | 197698
12 | 43:55.74 | 7:07.47 | 197699 | 229770
13 | 51:03.46 | 3:19.46 | 229771 | 244741
14 | 54:23.17 | 2:42.18 | 244742 | 256909
15 | 57:05.35 | 2:10.38 | 256910 | 266697
16 | 59:15.73 | 6:32.73 | 266698 | 296170
17 | 65:48.71 | 4:24.68 | 296171 | 316038
Track 1
Filename Q:\EAC\Isabel Bayrakdarian - 2008 - Tango Notturno\01 - Tcheknagh Yeraz.wav
Pre-gap length 0:00:02.00
Peak level 99.7 %
Track quality 100.0 %
Test CRC 83F55350
Copy CRC 83F55350
Accurately ripped (confidence 2) [23543CDD]
Copy OK
Track 2
Filename Q:\EAC\Isabel Bayrakdarian - 2008 - Tango Notturno\02 - Ya Zahratan Fee Khayalee.wav
Pre-gap length 0:00:01.68
Peak level 89.5 %
Track quality 100.0 %
Test CRC 313CB14D
Copy CRC 313CB14D
Accurately ripped (confidence 2) [737867BA]
Copy OK
Track 3
Filename Q:\EAC\Isabel Bayrakdarian - 2008 - Tango Notturno\03 - Satumaa.wav
Pre-gap length 0:00:02.09
Peak level 85.3 %
Track quality 100.0 %
Test CRC 3B7E7F62
Copy CRC 3B7E7F62
Accurately ripped (confidence 2) [A3FAE3EF]
Copy OK
Track 4
Filename Q:\EAC\Isabel Bayrakdarian - 2008 - Tango Notturno\04 - Jalousie.wav
Pre-gap length 0:00:03.24
Peak level 86.8 %
Track quality 100.0 %
Test CRC 84C59269
Copy CRC 84C59269
Accurately ripped (confidence 2) [0A600427]
Copy OK
Track 5
Filename Q:\EAC\Isabel Bayrakdarian - 2008 - Tango Notturno\05 - Por Una Cabeza.wav
Pre-gap length 0:00:03.00
Peak level 87.8 %
Track quality 100.0 %
Test CRC 6BD2E913
Copy CRC 6BD2E913
Accurately ripped (confidence 2) [9FFE77E1]
Copy OK
Track 6
Filename Q:\EAC\Isabel Bayrakdarian - 2008 - Tango Notturno\06 - Volver.wav
Pre-gap length 0:00:02.94
Peak level 99.3 %
Track quality 100.0 %
Test CRC B494FCDA
Copy CRC B494FCDA
Accurately ripped (confidence 2) [2462E0FA]
Copy OK
Track 7
Filename Q:\EAC\Isabel Bayrakdarian - 2008 - Tango Notturno\07 - El Dнa Que Me Quieras.wav
Pre-gap length 0:00:03.02
Peak level 90.4 %
Track quality 100.0 %
Test CRC F73D57B2
Copy CRC F73D57B2
Accurately ripped (confidence 2) [4E231CC9]
Copy OK
Track 8
Filename Q:\EAC\Isabel Bayrakdarian - 2008 - Tango Notturno\08 - Che Bandoneуn.wav
Pre-gap length 0:00:03.38
Peak level 100.0 %
Track quality 100.0 %
Test CRC E1D75F8B
Copy CRC E1D75F8B
Accurately ripped (confidence 2) [4B3A1A37]
Copy OK
Track 9
Filename Q:\EAC\Isabel Bayrakdarian - 2008 - Tango Notturno\09 - La Cumparsita.wav
Pre-gap length 0:00:04.13
Peak level 91.8 %
Track quality 99.9 %
Test CRC CB5ACE5D
Copy CRC CB5ACE5D
Accurately ripped (confidence 2) [751C1C8C]
Copy OK
Track 10
Filename Q:\EAC\Isabel Bayrakdarian - 2008 - Tango Notturno\10 - Youkali.wav
Pre-gap length 0:00:02.45
Peak level 93.8 %
Track quality 99.9 %
Test CRC B8546DDA
Copy CRC B8546DDA
Accurately ripped (confidence 2) [52DC5580]
Copy OK
Track 11
Filename Q:\EAC\Isabel Bayrakdarian - 2008 - Tango Notturno\11 - Oblivion.wav
Pre-gap length 0:00:05.10
Peak level 87.6 %
Track quality 99.9 %
Test CRC 1B3C528F
Copy CRC 1B3C528F
Accurately ripped (confidence 2) [BD8D9AE2]
Copy OK
Track 12
Filename Q:\EAC\Isabel Bayrakdarian - 2008 - Tango Notturno\12 - Invierno Porteсo.wav
Pre-gap length 0:00:02.85
Peak level 81.3 %
Track quality 100.0 %
Test CRC 588194B0
Copy CRC 588194B0
Accurately ripped (confidence 2) [D92FF88C]
Copy OK
Track 13
Filename Q:\EAC\Isabel Bayrakdarian - 2008 - Tango Notturno\13 - Tango Notturno.wav
Pre-gap length 0:00:03.26
Peak level 97.1 %
Track quality 100.0 %
Test CRC F3CC70B8
Copy CRC F3CC70B8
Accurately ripped (confidence 2) [331E90F6]
Copy OK
Track 14
Filename Q:\EAC\Isabel Bayrakdarian - 2008 - Tango Notturno\14 - Che Tango Che.wav
Pre-gap length 0:00:01.64
Peak level 99.6 %
Track quality 100.0 %
Test CRC EDBDDF6F
Copy CRC EDBDDF6F
Accurately ripped (confidence 2) [3A182BE1]
Copy OK
Track 15
Filename Q:\EAC\Isabel Bayrakdarian - 2008 - Tango Notturno\15 - Corralera.wav
Pre-gap length 0:00:02.49
Peak level 91.2 %
Track quality 99.9 %
Test CRC 52C88996
Copy CRC 52C88996
Accurately ripped (confidence 2) [7E972BA0]
Copy OK
Track 16
Filename Q:\EAC\Isabel Bayrakdarian - 2008 - Tango Notturno\16 - Verano Porteсo.wav
Pre-gap length 0:00:02.97
Peak level 93.7 %
Track quality 100.0 %
Test CRC 167406FB
Copy CRC 167406FB
Accurately ripped (confidence 2) [B9470F83]
Copy OK
Track 17
Filename Q:\EAC\Isabel Bayrakdarian - 2008 - Tango Notturno\17 - Rinascerт.wav
Peak level 100.0 %
Track quality 100.0 %
Test CRC 82107F25
Copy CRC 82107F25
Accurately ripped (confidence 2) [C36984AD]
Copy OK
All tracks accurately ripped
No errors occurred
End of status report

(.CUE)

REM GENRE Classical
REM DATE 2008
REM DISCID E5107511
REM COMMENT "ExactAudioCopy v0.99pb5"
FILE "Isabel Bayrakdarian - 2008 - Tango Notturno\01 - Tcheknagh Yeraz.wav" WAVE
TRACK 01 AUDIO
INDEX 01 00:00:00
TRACK 02 AUDIO
INDEX 00 02:57:57
FILE "Isabel Bayrakdarian - 2008 - Tango Notturno\02 - Ya Zahratan Fee Khayalee.wav" WAVE
INDEX 01 00:00:00
TRACK 03 AUDIO
INDEX 00 03:36:72
FILE "Isabel Bayrakdarian - 2008 - Tango Notturno\03 - Satumaa.wav" WAVE
INDEX 01 00:00:00
TRACK 04 AUDIO
INDEX 00 03:13:42
FILE "Isabel Bayrakdarian - 2008 - Tango Notturno\04 - Jalousie.wav" WAVE
INDEX 01 00:00:00
TRACK 05 AUDIO
INDEX 00 04:01:39
FILE "Isabel Bayrakdarian - 2008 - Tango Notturno\05 - Por Una Cabeza.wav" WAVE
INDEX 01 00:00:00
TRACK 06 AUDIO
INDEX 00 02:46:37
FILE "Isabel Bayrakdarian - 2008 - Tango Notturno\06 - Volver.wav" WAVE
INDEX 01 00:00:00
TRACK 07 AUDIO
INDEX 00 04:11:53
FILE "Isabel Bayrakdarian - 2008 - Tango Notturno\07 - El Dнa Que Me Quieras.wav" WAVE
INDEX 01 00:00:00
TRACK 08 AUDIO
INDEX 00 04:33:69
FILE "Isabel Bayrakdarian - 2008 - Tango Notturno\08 - Che Bandoneуn.wav" WAVE
INDEX 01 00:00:00
TRACK 09 AUDIO
INDEX 00 04:14:35
FILE "Isabel Bayrakdarian - 2008 - Tango Notturno\09 - La Cumparsita.wav" WAVE
INDEX 01 00:00:00
TRACK 10 AUDIO
INDEX 00 03:09:35
FILE "Isabel Bayrakdarian - 2008 - Tango Notturno\10 - Youkali.wav" WAVE
INDEX 01 00:00:00
TRACK 11 AUDIO
INDEX 00 06:25:05
FILE "Isabel Bayrakdarian - 2008 - Tango Notturno\11 - Oblivion.wav" WAVE
INDEX 01 00:00:00
TRACK 12 AUDIO
INDEX 00 04:11:11
FILE "Isabel Bayrakdarian - 2008 - Tango Notturno\12 - Invierno Porteсo.wav" WAVE
INDEX 01 00:00:00
TRACK 13 AUDIO
INDEX 00 07:04:27
FILE "Isabel Bayrakdarian - 2008 - Tango Notturno\13 - Tango Notturno.wav" WAVE
INDEX 01 00:00:00
TRACK 14 AUDIO
INDEX 00 03:17:73
FILE "Isabel Bayrakdarian - 2008 - Tango Notturno\14 - Che Tango Che.wav" WAVE
INDEX 01 00:00:00
TRACK 15 AUDIO
INDEX 00 02:39:56
FILE "Isabel Bayrakdarian - 2008 - Tango Notturno\15 - Corralera.wav" WAVE
INDEX 01 00:00:00
TRACK 16 AUDIO
INDEX 00 02:07:40
FILE "Isabel Bayrakdarian - 2008 - Tango Notturno\16 - Verano Porteсo.wav" WAVE
INDEX 01 00:00:00
FILE "Isabel Bayrakdarian - 2008 - Tango Notturno\17 - Rinascerт.wav" WAVE
TRACK 17 AUDIO
INDEX 01 00:00:00
mp3



Показать сообщения:    

Текущее время: 11-Дек 16:52

Часовой пояс: UTC + 3


Вы не можете начинать темы
Вы не можете отвечать на сообщения
Вы не можете редактировать свои сообщения
Вы не можете удалять свои сообщения
Вы не можете голосовать в опросах
Вы не можете прикреплять файлы к сообщениям
Вы не можете скачивать файлы