(Classical) Isabel Bayrakdarian - The Spanish Masters (Zuill Bailey; Manuel de Falla, Isaac Albeniz) - 2011, FLAC (tracks+.cue) lossless


 

[Цитировать]

Isabel Bayrakdarian - The Spanish Masters (Zuill Bailey)
Жанр: Classical
Год издания диска: 2011
Издатель (лейбл): Zenph Studios
Номер по каталогу:
Аудиокодек: FLAC
Тип рипа: tracks+.cue
Битрейт аудио: lossless
Продолжительность: 56’34
Источник: скачано из сети
Наличие сканов в содержимом раздачи: да
Треклист:
Manuel de Falla
Siete Canciones Populares Españolas
1. El Paño Moruno 1:23
2. Asturiana Manuel de Falla 2:33
3. Jota 3:13
4. Nana 1:37
5. Canción 1:18
6. Polo 1:35
Isaac Albéniz
7. La Vega 9:37
Improvisations (3)
8. Improvisación No. 1 2:11
9. Improvisación No. 2 2:08
10. Improvisación No. 3 2:06
Enriqué Granados
Sonatas (24)
11. Piano Sonata No. 9 in B flat major, DLR 6:1.9 (arr. of Scarlatti Keyboard Sonata, K. 190 / L. 250 / P. 256) 2:00
12. Improvisación Sobre "El Pelele" 3:01
Spanish Dances (12)
13. Danza Española No. 7 3:04
14. Danza Española No. 10 3:07
Manuel de Falla
Siete Canciones Populares Españolas
15. El Paño Moruno 1:21
16. Seguidilla Murciana 1:23
17. Asturiana 2:33
18. Jota 3:13
19. Nana 1:35
20. Canción 1:17
21. Polo 1:34
El Amor Brujo
22. Canción del Fuego Fatuo 1:35
23. Soneto a Córdoba 3:10
Исполнители:
Isabel Bayrakdarian - Primary Artist, Soprano (Vocal)
Zuill Bailey - Cello, Primary Artist

LOG EAC:

Exact Audio Copy V1.0 beta 3 from 29. August 2011
EAC extraction logfile from 19. February 2013, 19:42
Zuill Bailey & Isabal Bayrakdarian / The Spanish Masters
Used drive : PIONEER DVD-RW DVR-216 Adapter: 0 ID: 1
Read mode : Secure
Utilize accurate stream : Yes
Defeat audio cache : Yes
Make use of C2 pointers : No
Read offset correction : 96
Overread into Lead-In and Lead-Out : No
Fill up missing offset samples with silence : Yes
Delete leading and trailing silent blocks : No
Null samples used in CRC calculations : Yes
Used interface : Native Win32 interface for Win NT & 2000
Gap handling : Appended to previous track
Used output format : User Defined Encoder
Selected bitrate : 896 kBit/s
Quality : High
Add ID3 tag : No
Command line compressor : F:\apps\FLAC\flac.exe
Additional command line options : -V -8 -T "artist=%artist%" -T "title=%title%" -T "album=%albumtitle%" -T "date=%year%" -T "tracknumber=%tracknr%" -T "genre=%genre%" %source%
TOC of the extracted CD
Track | Start | Length | Start sector | End sector
---------------------------------------------------------
1 | 0:00.00 | 1:23.39 | 0 | 6263
2 | 1:23.39 | 2:33.07 | 6264 | 17745
3 | 3:56.46 | 3:13.63 | 17746 | 32283
4 | 7:10.34 | 1:37.44 | 32284 | 39602
5 | 8:48.03 | 1:18.60 | 39603 | 45512
6 | 10:06.63 | 1:35.29 | 45513 | 52666
7 | 11:42.17 | 9:37.01 | 52667 | 95942
8 | 21:19.18 | 2:11.63 | 95943 | 105830
9 | 23:31.06 | 2:08.38 | 105831 | 115468
10 | 25:39.44 | 2:06.03 | 115469 | 124921
11 | 27:45.47 | 2:01.00 | 124922 | 133996
12 | 29:46.47 | 3:01.58 | 133997 | 147629
13 | 32:48.30 | 3:04.11 | 147630 | 161440
14 | 35:52.41 | 3:07.09 | 161441 | 175474
15 | 38:59.50 | 1:21.40 | 175475 | 181589
16 | 40:21.15 | 1:23.06 | 181590 | 187820
17 | 41:44.21 | 2:33.51 | 187821 | 199346
18 | 44:17.72 | 3:13.10 | 199347 | 213831
19 | 47:31.07 | 1:35.37 | 213832 | 220993
20 | 49:06.44 | 1:17.57 | 220994 | 226825
21 | 50:24.26 | 1:34.47 | 226826 | 233922
22 | 51:58.73 | 1:35.61 | 233923 | 241108
23 | 53:34.59 | 3:10.20 | 241109 | 255378
Track 1
Filename F:\01 Manuel de Falla (from Siete Canciones Populares Españolas) - El Paño Moruno.wav
Pre-gap length 0:00:02.00
Peak level 92.5 %
Extraction speed 3.3 X
Track quality 100.0 %
Test CRC 7EAA2C95
Copy CRC 7EAA2C95
Accurately ripped (confidence 1) [7D218DE0] (AR v1)
Copy OK
Track 2
Filename F:\02 Manuel de Falla (from Siete Canciones Populares Españolas) - Asturiana.wav
Peak level 34.0 %
Extraction speed 4.1 X
Track quality 100.0 %
Test CRC C1D19A95
Copy CRC C1D19A95
Accurately ripped (confidence 1) [4256FDC7] (AR v1)
Copy OK
Track 3
Filename F:\03 Manuel de Falla (from Siete Canciones Populares Españolas) - Jota.wav
Peak level 99.4 %
Extraction speed 4.0 X
Track quality 99.9 %
Test CRC 618855B0
Copy CRC 618855B0
Accurately ripped (confidence 1) [FF998353] (AR v1)
Copy OK
Track 4
Filename F:\04 Manuel de Falla (from Siete Canciones Populares Españolas) - Nana.wav
Peak level 17.7 %
Extraction speed 3.3 X
Track quality 99.8 %
Test CRC AEEB88B9
Copy CRC AEEB88B9
Accurately ripped (confidence 1) [6864BF64] (AR v1)
Copy OK
Track 5
Filename F:\05 Manuel de Falla (from Siete Canciones Populares Españolas) - Canción.wav
Peak level 55.3 %
Extraction speed 4.1 X
Track quality 100.0 %
Test CRC 6C94D1AA
Copy CRC 6C94D1AA
Accurately ripped (confidence 1) [5BFBE6B7] (AR v1)
Copy OK
Track 6
Filename F:\06 Manuel de Falla (from Siete Canciones Populares Españolas) - Polo.wav
Peak level 98.0 %
Extraction speed 4.4 X
Track quality 100.0 %
Test CRC 13EBBAEC
Copy CRC 13EBBAEC
Accurately ripped (confidence 1) [93CF495D] (AR v1)
Copy OK
Track 7
Filename F:\07 Isaac Albéniz - La Vega.wav
Peak level 95.2 %
Extraction speed 6.0 X
Track quality 99.9 %
Test CRC F8BCA4CC
Copy CRC F8BCA4CC
Accurately ripped (confidence 1) [A936F38E] (AR v1)
Copy OK
Track 8
Filename F:\08 Isaac Albéniz - Improvisación No. 1.wav
Peak level 99.1 %
Extraction speed 5.6 X
Track quality 100.0 %
Test CRC AEBCA9DB
Copy CRC AEBCA9DB
Accurately ripped (confidence 1) [276345E3] (AR v1)
Copy OK
Track 9
Filename F:\09 Isaac Albéniz - Improvisación No. 2.wav
Peak level 75.5 %
Extraction speed 5.7 X
Track quality 100.0 %
Test CRC 88E617E5
Copy CRC 88E617E5
Accurately ripped (confidence 1) [E7D12CE9] (AR v1)
Copy OK
Track 10
Filename F:\10 Isaac Albéniz - Improvisación No. 3.wav
Peak level 99.1 %
Extraction speed 6.0 X
Track quality 100.0 %
Test CRC BE3CE76F
Copy CRC BE3CE76F
Accurately ripped (confidence 1) [E2F4A5D8] (AR v1)
Copy OK
Track 11
Filename F:\11 Enrique Granados - Piano Sonata No. 9 in B-flat major, DLR VI 1.9.wav
Peak level 75.5 %
Extraction speed 5.9 X
Track quality 100.0 %
Test CRC 0007B2D9
Copy CRC 0007B2D9
Accurately ripped (confidence 1) [8BE4ACC8] (AR v1)
Copy OK
Track 12
Filename F:\12 Enrique Granados - Improvisación Sobre 'El Pelele'.wav
Peak level 96.9 %
Extraction speed 6.7 X
Track quality 100.0 %
Test CRC CB45D59A
Copy CRC CB45D59A
Accurately ripped (confidence 1) [71FA3A8A] (AR v1)
Copy OK
Track 13
Filename F:\13 Enrique Granados - Danza Española No. 7.wav
Peak level 72.4 %
Extraction speed 6.9 X
Track quality 100.0 %
Test CRC A34307EA
Copy CRC A34307EA
Accurately ripped (confidence 1) [1FFC9634] (AR v1)
Copy OK
Track 14
Filename F:\14 Enrique Granados - Danza Española No. 10.wav
Peak level 65.7 %
Extraction speed 7.1 X
Track quality 100.0 %
Test CRC 3199AFE2
Copy CRC 3199AFE2
Accurately ripped (confidence 1) [84427F9A] (AR v1)
Copy OK
Track 15
Filename F:\15 Manuel de Falla (from Siete Canciones Populares Españolas) - El Paño Moruno.wav
Peak level 76.4 %
Extraction speed 5.9 X
Track quality 100.0 %
Test CRC 8233DB1C
Copy CRC 8233DB1C
Accurately ripped (confidence 1) [BA4B2432] (AR v1)
Copy OK
Track 16
Filename F:\16 Manuel de Falla (from Siete Canciones Populares Españolas) - Seguidilla Murciana.wav
Peak level 99.2 %
Extraction speed 5.9 X
Track quality 100.0 %
Test CRC FBB32E6E
Copy CRC FBB32E6E
Accurately ripped (confidence 1) [BCD1670A] (AR v1)
Copy OK
Track 17
Filename F:\17 Manuel de Falla (from Siete Canciones Populares Españolas) - Asturiana.wav
Peak level 70.0 %
Extraction speed 5.9 X
Track quality 99.9 %
Test CRC 98F1034E
Copy CRC 98F1034E
Accurately ripped (confidence 1) [6A4ED35F] (AR v1)
Copy OK
Track 18
Filename F:\18 Manuel de Falla (from Siete Canciones Populares Españolas) - Jota.wav
Peak level 99.2 %
Extraction speed 7.6 X
Track quality 100.0 %
Test CRC 86D6E9DE
Copy CRC 86D6E9DE
Accurately ripped (confidence 1) [BE1FA2A4] (AR v1)
Copy OK
Track 19
Filename F:\19 Manuel de Falla (from Siete Canciones Populares Españolas) - Nana.wav
Peak level 99.3 %
Extraction speed 6.5 X
Track quality 100.0 %
Test CRC FC675E1B
Copy CRC FC675E1B
Accurately ripped (confidence 1) [CD1A6D3D] (AR v1)
Copy OK
Track 20
Filename F:\20 Manuel de Falla (from Siete Canciones Populares Españolas) - Canción.wav
Peak level 78.1 %
Extraction speed 6.3 X
Track quality 100.0 %
Test CRC 98B2430F
Copy CRC 98B2430F
Accurately ripped (confidence 1) [D89A739C] (AR v1)
Copy OK
Track 21
Filename F:\21 Manuel de Falla (from Siete Canciones Populares Españolas) - Polo.wav
Peak level 99.4 %
Extraction speed 5.2 X
Track quality 99.8 %
Test CRC A2FF152E
Copy CRC A2FF152E
Accurately ripped (confidence 1) [577B1A24] (AR v1)
Copy OK
Track 22
Filename F:\22 Manuel de Falla - Canción del Fuego Fatuo (from El Amor Brujo).wav
Peak level 66.1 %
Extraction speed 6.7 X
Track quality 100.0 %
Test CRC 619A0655
Copy CRC 619A0655
Accurately ripped (confidence 1) [2DCA617B] (AR v1)
Copy OK
Track 23
Filename F:\23 Manuel de Falla - Soneto a Córdoba.wav
Peak level 97.5 %
Extraction speed 6.9 X
Track quality 99.9 %
Test CRC D79E41CE
Copy CRC D79E41CE
Accurately ripped (confidence 1) [3621559B] (AR v1)
Copy OK
All tracks accurately ripped
No errors occurred
End of status report
==== Log checksum CA3CE0F2009FD0CE66C854A474332B52CE1FDB1BD4C9F1C1FC324E0A41C42F25 ====

(.CUE)

REM GENRE Classical
REM DATE 2011
REM DISCID 2E0D4D17
REM COMMENT "ExactAudioCopy v1.0b3"
PERFORMER "Zuill Bailey & Isabal Bayrakdarian"
TITLE "The Spanish Masters"
FILE "01 Manuel de Falla (from Siete Canciones Populares Espaсolas) - El Paсo Moruno.wav" WAVE
TRACK 01 AUDIO
TITLE "Manuel de Falla (from Siete Canciones Populares Espaсolas) - El Paсo Moruno"
PERFORMER "Zuill Bailey & Isabal Bayrakdarian"
INDEX 01 00:00:00
FILE "02 Manuel de Falla (from Siete Canciones Populares Espaсolas) - Asturiana.wav" WAVE
TRACK 02 AUDIO
TITLE "Manuel de Falla (from Siete Canciones Populares Espaсolas) - Asturiana"
PERFORMER "Zuill Bailey & Isabal Bayrakdarian"
INDEX 01 00:00:00
FILE "03 Manuel de Falla (from Siete Canciones Populares Espaсolas) - Jota.wav" WAVE
TRACK 03 AUDIO
TITLE "Manuel de Falla (from Siete Canciones Populares Espaсolas) - Jota"
PERFORMER "Zuill Bailey & Isabal Bayrakdarian"
INDEX 01 00:00:00
FILE "04 Manuel de Falla (from Siete Canciones Populares Espaсolas) - Nana.wav" WAVE
TRACK 04 AUDIO
TITLE "Manuel de Falla (from Siete Canciones Populares Espaсolas) - Nana"
PERFORMER "Zuill Bailey & Isabal Bayrakdarian"
INDEX 01 00:00:00
FILE "05 Manuel de Falla (from Siete Canciones Populares Espaсolas) - Canciуn.wav" WAVE
TRACK 05 AUDIO
TITLE "Manuel de Falla (from Siete Canciones Populares Espaсolas) - Canciуn"
PERFORMER "Zuill Bailey & Isabal Bayrakdarian"
INDEX 01 00:00:00
FILE "06 Manuel de Falla (from Siete Canciones Populares Espaсolas) - Polo.wav" WAVE
TRACK 06 AUDIO
TITLE "Manuel de Falla (from Siete Canciones Populares Espaсolas) - Polo"
PERFORMER "Zuill Bailey & Isabal Bayrakdarian"
INDEX 01 00:00:00
FILE "07 Isaac Albйniz - La Vega.wav" WAVE
TRACK 07 AUDIO
TITLE "Isaac Albйniz - La Vega"
PERFORMER "Zuill Bailey & Isabal Bayrakdarian"
INDEX 01 00:00:00
FILE "08 Isaac Albйniz - Improvisaciуn No. 1.wav" WAVE
TRACK 08 AUDIO
TITLE "Isaac Albйniz - Improvisaciуn No. 1"
PERFORMER "Zuill Bailey & Isabal Bayrakdarian"
INDEX 01 00:00:00
FILE "09 Isaac Albйniz - Improvisaciуn No. 2.wav" WAVE
TRACK 09 AUDIO
TITLE "Isaac Albйniz - Improvisaciуn No. 2"
PERFORMER "Zuill Bailey & Isabal Bayrakdarian"
INDEX 01 00:00:00
FILE "10 Isaac Albйniz - Improvisaciуn No. 3.wav" WAVE
TRACK 10 AUDIO
TITLE "Isaac Albйniz - Improvisaciуn No. 3"
PERFORMER "Zuill Bailey & Isabal Bayrakdarian"
INDEX 01 00:00:00
FILE "11 Enrique Granados - Piano Sonata No. 9 in B-flat major, DLR VI 1.9.wav" WAVE
TRACK 11 AUDIO
TITLE "Enrique Granados - Piano Sonata No. 9 in B-flat major, DLR VI 1.9"
PERFORMER "Zuill Bailey & Isabal Bayrakdarian"
INDEX 01 00:00:00
FILE "12 Enrique Granados - Improvisaciуn Sobre 'El Pelele'.wav" WAVE
TRACK 12 AUDIO
TITLE "Enrique Granados - Improvisaciуn Sobre 'El Pelele'"
PERFORMER "Zuill Bailey & Isabal Bayrakdarian"
INDEX 01 00:00:00
FILE "13 Enrique Granados - Danza Espaсola No. 7.wav" WAVE
TRACK 13 AUDIO
TITLE "Enrique Granados - Danza Espaсola No. 7"
PERFORMER "Zuill Bailey & Isabal Bayrakdarian"
INDEX 01 00:00:00
FILE "14 Enrique Granados - Danza Espaсola No. 10.wav" WAVE
TRACK 14 AUDIO
TITLE "Enrique Granados - Danza Espaсola No. 10"
PERFORMER "Zuill Bailey & Isabal Bayrakdarian"
INDEX 01 00:00:00
FILE "15 Manuel de Falla (from Siete Canciones Populares Espaсolas) - El Paсo Moruno.wav" WAVE
TRACK 15 AUDIO
TITLE "Manuel de Falla (from Siete Canciones Populares Espaсolas) - El Paсo Moruno"
PERFORMER "Zuill Bailey & Isabal Bayrakdarian"
INDEX 01 00:00:00
FILE "16 Manuel de Falla (from Siete Canciones Populares Espaсolas) - Seguidilla Murciana.wav" WAVE
TRACK 16 AUDIO
TITLE "Manuel de Falla (from Siete Canciones Populares Espaсolas) - Seguidilla Murciana"
PERFORMER "Zuill Bailey & Isabal Bayrakdarian"
INDEX 01 00:00:00
FILE "17 Manuel de Falla (from Siete Canciones Populares Espaсolas) - Asturiana.wav" WAVE
TRACK 17 AUDIO
TITLE "Manuel de Falla (from Siete Canciones Populares Espaсolas) - Asturiana"
PERFORMER "Zuill Bailey & Isabal Bayrakdarian"
INDEX 01 00:00:00
FILE "18 Manuel de Falla (from Siete Canciones Populares Espaсolas) - Jota.wav" WAVE
TRACK 18 AUDIO
TITLE "Manuel de Falla (from Siete Canciones Populares Espaсolas) - Jota"
PERFORMER "Zuill Bailey & Isabal Bayrakdarian"
INDEX 01 00:00:00
FILE "19 Manuel de Falla (from Siete Canciones Populares Espaсolas) - Nana.wav" WAVE
TRACK 19 AUDIO
TITLE "Manuel de Falla (from Siete Canciones Populares Espaсolas) - Nana"
PERFORMER "Zuill Bailey & Isabal Bayrakdarian"
INDEX 01 00:00:00
FILE "20 Manuel de Falla (from Siete Canciones Populares Espaсolas) - Canciуn.wav" WAVE
TRACK 20 AUDIO
TITLE "Manuel de Falla (from Siete Canciones Populares Espaсolas) - Canciуn"
PERFORMER "Zuill Bailey & Isabal Bayrakdarian"
INDEX 01 00:00:00
FILE "21 Manuel de Falla (from Siete Canciones Populares Espaсolas) - Polo.wav" WAVE
TRACK 21 AUDIO
TITLE "Manuel de Falla (from Siete Canciones Populares Espaсolas) - Polo"
PERFORMER "Zuill Bailey & Isabal Bayrakdarian"
INDEX 01 00:00:00
FILE "22 Manuel de Falla - Canciуn del Fuego Fatuo (from El Amor Brujo).wav" WAVE
TRACK 22 AUDIO
TITLE "Manuel de Falla - Canciуn del Fuego Fatuo (from El Amor Brujo)"
PERFORMER "Zuill Bailey & Isabal Bayrakdarian"
INDEX 01 00:00:00
FILE "23 Manuel de Falla - Soneto a Cуrdoba.wav" WAVE
TRACK 23 AUDIO
TITLE "Manuel de Falla - Soneto a Cуrdoba"
PERFORMER "Zuill Bailey & Isabal Bayrakdarian"
INDEX 01 00:00:00
mp3



Показать сообщения:    

Текущее время: 08-Дек 19:01

Часовой пояс: UTC + 3


Вы не можете начинать темы
Вы не можете отвечать на сообщения
Вы не можете редактировать свои сообщения
Вы не можете удалять свои сообщения
Вы не можете голосовать в опросах
Вы не можете прикреплять файлы к сообщениям
Вы не можете скачивать файлы